coor
一代宗师

[2019] [欧美] [其他] [WEB-1080P] 越野飞驰 Bennetts.War.2019.1080p.WEBRip.DD5.1.x264-NOGRP 3.79GB

-->

帖子完整标题:越野飞驰 Bennetts.War.2019.1080p.WEBRip.DD5.1.x264-NOGRP 3.79GB




◎译  名 越野飞驰 / BMX / Motocross
◎片  名 Bennett's War
◎年  代 2019
◎产  地 美国
◎类  别 运动
◎语  言 英语
◎上映日期 2019-08-30(美国)
◎IMDb评分 5.2/10 from 280 users
◎IMDb链接 https://www.imdb.com/title/tt7370952
◎豆瓣评分 0/10 from 0 users
◎豆瓣链接 https://movie.douban.com/subject/26900548/
◎片  长 95分钟
◎导  演 亚历克斯·兰阿瑞佛罗 Alex Ranarivelo
◎编  剧 亚历克斯·兰阿瑞佛罗 Alex Ranarivelo
◎主  演 特雷斯·阿德金斯 Trace Adkins
      阿里·阿夫沙尔 Ali Afshar
      埃里森·佩姬 Allison Paige
      布兰登·伊顿 Brando Eaton
      Michael Roark
      Hunter Clowdus
      Tony Panterra
      Michael King
      Taylor Kalupa
      Michael Sadler


◎标  签 运动 | 美国 | 摩托车 | 越野赛车 | 剧情 | 2019 | 美国电影 | 阿里·阿夫沙尔

◎简  介

  After surviving an IED explosion in combat overseas, a young soldier with the Army Motorcycle Unit is medically discharged with a broken back and leg. Against all odds he trains to make an impossible comeback as a motocross racer in order to support his family.
Video
ID : 1
Format : AVC
Format/Info : Advanced Video Codec
Format profile : [email protected]
Format settings : CABAC / 2 Ref Frames
Format settings, CABAC : Yes
Format settings, Reference frames : 2 frames
Codec ID : V_MPEG4/ISO/AVC
Duration : 1 h 34 min
Bit rate : 5 370 kb/s
Width : 1 920 pixels
Height : 1 080 pixels
Display aspect ratio : 16:9
Frame rate mode : Constant
Frame rate : 23.976 (24000/1001/189150) FPS
Color space : YUV
Chroma subsampling : 4:2:0
Bit depth : 8 bits
Scan type : Progressive
Bits/(Pixel*Frame) : 0.108
Stream size : 3.53 GiB (93%)
Title : Bennetts.War.2019.1080p.WEBRip.DD5.1.x264-NOGRP
Language : English
Default : Yes
Forced : No

Audio
ID : 2
Format : AC-3
Format/Info : Audio Coding 3
Commercial name : Dolby Digital
Codec ID : A_AC3
Duration : 1 h 34 min
Bit rate mode : Constant
Bit rate : 384 kb/s
Channel(s) : 6 channels
Channel layout : L R C LFE Ls Rs
Sampling rate : 48.0 kHz
Frame rate : 31.250 FPS (1536 SPF)
Bit depth : 16 bits
Compression mode : Lossy
Stream size : 259 MiB (7%)
Title : Bennetts.War.2019.1080p.WEBRip.DD5.1.x264-NOGRP
Language : English
Service kind : Complete Main
Default : No
Forced : No





1 个附件 售价 大小 下载 时间

Bennetts.War.2019.1080p.WEBRip.DD5.1.x264-NOGRP.torrent 0 金币 38.41K 371 次 12天前

#1楼
发帖时间:2020-03-24 22:26:24   |   回复数:2
liyouchai
隐世仙人♂
谢谢楼主分享资源
12天前 #2楼
911degrees
隐世仙人♂
非常感谢,谢谢分享
11天前 #3楼
游客组