coor
一代宗师

[2018] [其他] [剧情] [WEB-1080P] 铁三角:正义之战 The.Trigonal.Fight.For.Justice.2018.1080p.WEB-DL.DD5.1.H264-FGT 3.48GB

-->

帖子完整标题:铁三角:正义之战 The.Trigonal.Fight.For.Justice.2018.1080p.WEB-DL.DD5.1.H264-FGT 3.48GB




◎译  名 铁三角:正义之战
◎片  名 The Trigonal: Fight for Justice
◎年  代 2018
◎产  地 菲律宾
◎类  别 剧情 / 动作 / 惊悚
◎语  言 英语 / 菲律宾语
◎上映日期 2018-09-26(菲律宾)
◎IMDb评分 7.1/10 from 28 users
◎IMDb链接 https://www.imdb.com/title/tt7419218
◎豆瓣评分 0/10 from 0 users
◎豆瓣链接 https://movie.douban.com/subject/30346578/
◎片  长 122分钟
◎导  演 Vincent Soberano
◎编  剧 Vincent Soberano
◎主  演 Ian Ignacio
      Sarah Chang


◎简  介

  暂无相关剧情介绍
Video
ID : 1
Format : AVC
Format/Info : Advanced Video Codec
Format profile : [email protected]
Format settings : CABAC / 5 Ref Frames
Format settings, CABAC : Yes
Format settings, Reference frames : 5 frames
Codec ID : V_MPEG4/ISO/AVC
Duration : 1 h 40 min
Bit rate : 4 560 kb/s
Width : 1 912 pixels
Height : 632 pixels
Display aspect ratio : 3.025
Frame rate mode : Constant
Frame rate : 24.000 FPS
Color space : YUV
Chroma subsampling : 4:2:0
Bit depth : 8 bits
Scan type : Progressive
Bits/(Pixel*Frame) : 0.157
Stream size : 3.21 GiB (92%)
Title : The.Trigonal.Fight.For.Justice.2018.1080p.WEB-DL.DD5.1.H264-FGT
Language : English
Default : Yes
Forced : No
Color range : Limited
Color primaries : BT.709
Transfer characteristics : BT.709
Matrix coefficients : BT.709

Audio
ID : 2
Format : AC-3
Format/Info : Audio Coding 3
Commercial name : Dolby Digital
Codec ID : A_AC3
Duration : 1 h 40 min
Bit rate mode : Constant
Bit rate : 384 kb/s
Channel(s) : 6 channels
Channel layout : L R C LFE Ls Rs
Sampling rate : 48.0 kHz
Frame rate : 31.250 FPS (1536 SPF)
Bit depth : 16 bits
Compression mode : Lossy
Stream size : 276 MiB (8%)
Title : The.Trigonal.Fight.For.Justice.2018.1080p.WEB-DL.DD5.1.H264-FGT
Language : English
Service kind : Complete Main
Default : Yes
Forced : No

Text
ID : 3
Format : UTF-8
Codec ID : S_TEXT/UTF8
Codec ID/Info : UTF-8 Plain Text
Duration : 1 h 38 min
Bit rate : 67 b/s
Count of elements : 1279
Stream size : 48.8 KiB (0%)
Language : English
Default : Yes
Forced : No

Menu
00:00:00.000 : en:Chapter 1
00:11:27.479 : en:Chapter 2
00:20:40.615 : en:Chapter 3
00:30:12.728 : en:Chapter 4
00:39:11.891 : en:Chapter 5
00:50:37.992 : en:Chapter 6
01:00:31.669 : en:Chapter 7
01:07:58.949 : en:Chapter 8
01:18:16.357 : en:Chapter 9
01:30:15.199 : en:Chapter 10
01:38:03.625 : en:Chapter 11
01:40:39.949 : en:Chapter 1





1 个附件 售价 大小 下载 时间

The.Trigonal.Fight.For.Justice.2018.1080p.WEB-DL.DD5.1.H264-FGT.torrent 0 金币 35.33K 1141 次 1月前

#1楼
发帖时间:2020-01-24 15:30:17   |   回复数:1
911degrees
隐世仙人♂
非常感谢,谢谢分享
26天前 #2楼
游客组