coor
一代宗师

[更 早] [欧美] [剧情] [WEB-1080P] 反对之声 A.Chorus.of.Disapproval.1989.1080p.AMZN.WEBRip.DD2.0.x264-alfaHD 10.28GB

-->

帖子完整标题:反对之声 A.Chorus.of.Disapproval.1989.1080p.AMZN.WEBRip.DD2.0.x264-alfaHD 10.28GB




◎译  名 反对之声
◎片  名 A Chorus of Disapproval
◎年  代 1989
◎产  地 英国
◎类  别 剧情 / 喜剧 / 歌舞
◎语  言 英语
◎上映日期 1992-02-27
◎IMDb评分 5.5/10 from 700 users
◎IMDb链接 https://www.imdb.com/title/tt0094871
◎豆瓣评分 0/10 from 0 users
◎豆瓣链接 https://movie.douban.com/subject/2297958/
◎片  长 Spain: 100 分钟
◎导  演 迈克尔·温纳 Michael Winner
◎编  剧 nm0043697
◎主  演 安东尼·霍普金斯 Anthony Hopkins
      杰瑞米·艾恩斯 Jeremy Irons
      Prunella Scales
      Jenny Seagrove
      Sylvia Syms
      盖瑞·亨特 Gareth Hunt
      帕齐·肯西特 Patsy Kensit
      莱昂内尔·杰夫瑞斯 Lionel Jeffries
      Alexandra Pigg
      理查德·布赖尔斯 Richard Briers
      Barbara Ferris
      Pete Lee
      Dave King


◎标  签 JeremyIrons | Jeremy_Irons | 英国 | 喜剧 | AnthonyHopkins | 经典 | 歌舞 | 杰瑞米·艾恩斯

◎简  介

  CHORUS OF DISSAPROVAL Out 7th May 2007 Following the death of his wife, Guy Jones (Jeremy Irons) is moved by his company to a sleepy seaside town, where, faced with knowing no-one and nights of boredom in front of the TV, he decides to join the local amateur dramatics society. He is enthusiastically welcomed by eccentric Welsh Director, Dafydd (Anthony Hopkins), but it is not long before Guy realizes that the action on stage is nothing compared with the jealousy, suspicion and seduction that carries on when rehearsals are finished! Written by acclaimed playwright Alan Ayckbourn, A Chorus Of Disapproval is a star-studded and nostalgically comic look at British Provincial life that evokes warm memories of eating fish and chips by the sea in the never-ending drizzle. A perfect heart-warming tale with some fantastic performances that is guaranteed to leave you chuckling long after the curtain has come down.
Video
ID : 1
Format : AVC
Format/Info : Advanced Video Codec
Format profile : [email protected]
Format settings : CABAC / 4 Ref Frames
Format settings, CABAC : Yes
Format settings, Reference frames : 4 frames
Codec ID : V_MPEG4/ISO/AVC
Duration : 1 h 39 min
Bit rate mode : Variable
Bit rate : 14.6 Mb/s
Maximum bit rate : 15.0 Mb/s
Width : 1 920 pixels
Height : 1 040 pixels
Display aspect ratio : 1.85:1
Frame rate mode : Constant
Frame rate : 24.000 FPS
Color space : YUV
Chroma subsampling : 4:2:0
Bit depth : 8 bits
Scan type : Progressive
Bits/(Pixel*Frame) : 0.304
Stream size : 10.1 GiB (98%)
Default : Yes
Forced : No
Color range : Limited
Color primaries : BT.709
Transfer characteristics : BT.709
Matrix coefficients : BT.709

Audio
ID : 2
Format : E-AC-3
Format/Info : Enhanced AC-3
Commercial name : Dolby Digital Plus
Codec ID : A_EAC3
Duration : 1 h 39 min
Bit rate mode : Constant
Bit rate : 224 kb/s
Channel(s) : 2 channels
Channel layout : L R
Sampling rate : 48.0 kHz
Frame rate : 31.250 FPS (1536 SPF)
Compression mode : Lossy
Stream size : 159 MiB (2%)
Language : English
Service kind : Complete Main
Default : Yes
Forced : No

Text #1
ID : 3
Format : UTF-8
Codec ID : S_TEXT/UTF8
Codec ID/Info : UTF-8 Plain Text
Duration : 1 h 36 min
Bit rate : 78 b/s
Count of elements : 2279
Stream size : 55.4 KiB (0%)
Language : English
Default : No
Forced : No

Text #2
ID : 4
Format : UTF-8
Codec ID : S_TEXT/UTF8
Codec ID/Info : UTF-8 Plain Text
Duration : 1 h 37 min
Bit rate : 80 b/s
Count of elements : 2365
Stream size : 57.1 KiB (0%)
Title : SDH
Language : English
Default : No
Forced : No





1 个附件 售价 大小 下载 时间

A.Chorus.of.Disapproval.1989.1080p.AMZN.WEBRip.DD2.0.x264-alfaHD.torrent 0 金币 51.94K 210 次 8月前

#1楼
发帖时间:2020-01-15 04:57:47   |   回复数:1
911degrees
隐世仙人♂
非常感谢,谢谢分享
8月前 #2楼
游客组