coor
武林盟主

[2018] [其他] [剧情] [WEB-1080P] 逆风蝶舞 Float.Like.A.Butterfly.2018.1080p.WEB-DL.DD5.1.H264-FGT 3.50GB

-->

帖子完整标题:逆风蝶舞 Float.Like.A.Butterfly.2018.1080p.WEB-DL.DD5.1.H264-FGT 3.50GB




◎译  名 逆风蝶舞
◎片  名 Float Like a Butterfly
◎年  代 2018
◎产  地 爱尔兰
◎类  别 剧情
◎语  言 英语
◎上映日期 2018-09-07(多伦多电影节)
◎IMDb评分 6.4/10 from 90 users
◎IMDb链接 https://www.imdb.com/title/tt7636672
◎豆瓣评分 0/10 from 0 users
◎豆瓣链接 https://movie.douban.com/subject/30307250/
◎片  长 101分钟
◎导  演 卡梅尔·温特斯 Carmel Winters
◎编  剧 卡梅尔·温特斯 Carmel Winters
◎主  演 Hazel Doupe
      Dara Devaney
      Johnny Collins
      Hilda Fay
      John Gerard Healy
      Jamie Kierans
      Amelie Metcalfe
      艾登·奥黑尔 Aidan O'Hare
      莱勒·罗迪 Lalor Roddy


◎标  签 爱尔兰 | 爱尔兰电影 | 女性 | BIFF | SIFF | 家庭 | 体育 | 运动

◎简  介

  风光如画的爱尔兰,画风突然一转:15岁的小姑娘弗朗西斯喜欢拳击,偶像是阿里,这个爱好不被父亲等许多人理解。弗朗西斯不惜流汗和流血,获得梦想和自由。

◎获奖情况

  第43届多伦多国际电影节(2018)
  国际影评人联盟奖 国际影评人发现奖

  第23届釜山国际电影节(2018)
  未来景象奖(提名) 卡梅尔·温特斯
Video
ID : 1
Format : AVC
Format/Info : Advanced Video Codec
Format profile : [email protected]
Format settings : CABAC / 5 Ref Frames
Format settings, CABAC : Yes
Format settings, Reference frames : 5 frames
Codec ID : V_MPEG4/ISO/AVC
Duration : 1 h 41 min
Bit rate : 4 564 kb/s
Width : 1 908 pixels
Height : 796 pixels
Display aspect ratio : 2.40:1
Frame rate mode : Constant
Frame rate : 23.976 (24000/1001) FPS
Color space : YUV
Chroma subsampling : 4:2:0
Bit depth : 8 bits
Scan type : Progressive
Bits/(Pixel*Frame) : 0.125
Stream size : 3.23 GiB (92%)
Title : Float.Like.A.Butterfly.2018.1080p.WEB-DL.DD5.1.H264-FGT
Language : English
Default : Yes
Forced : No
Color range : Limited
Color primaries : BT.709
Transfer characteristics : BT.709
Matrix coefficients : BT.709

Audio
ID : 2
Format : AC-3
Format/Info : Audio Coding 3
Commercial name : Dolby Digital
Codec ID : A_AC3
Duration : 1 h 41 min
Bit rate mode : Constant
Bit rate : 384 kb/s
Channel(s) : 6 channels
Channel layout : L R C LFE Ls Rs
Sampling rate : 48.0 kHz
Frame rate : 31.250 FPS (1536 SPF)
Bit depth : 16 bits
Compression mode : Lossy
Stream size : 278 MiB (8%)
Title : Float.Like.A.Butterfly.2018.1080p.WEB-DL.DD5.1.H264-FGT
Language : English
Service kind : Complete Main
Default : Yes
Forced : No

Text
ID : 3
Format : UTF-8
Codec ID : S_TEXT/UTF8
Codec ID/Info : UTF-8 Plain Text
Duration : 1 h 40 min
Bit rate : 67 b/s
Count of elements : 1331
Stream size : 50.0 KiB (0%)
Language : English
Default : Yes
Forced : No

Menu
00:00:00.000 : en:1
00:01:08.000 : en:2
00:09:39.000 : en:3
00:20:24.000 : en:4
00:30:41.000 : en:5
00:40:35.000 : en:6
00:50:17.000 : en:7
00:58:50.000 : en:8
01:09:39.000 : en:9
01:20:55.000 : en:10
01:29:17.000 : en:11
01:36:15.000 : en:12





1 个附件 售价 大小 下载 时间

Float.Like.A.Butterfly.2018.1080p.WEB-DL.DD5.1.H264-FGT.torrent 0 金币 35.53K 259 次 10天前

#1楼
发帖时间:2020-01-14 16:32:32   |   回复数:2
tanchoohoon
武林盟主
感谢楼主的无私分享
10天前 #2楼
911degrees
隐世仙人♂
非常感谢,谢谢分享
9天前 #3楼
游客组