coor
一代宗师

[更 早] [其他] [动作] [BD-1080P] 倩女幽魂Ⅲ 道道道 A.Chinese.Ghost.Story.III.1991.1080p.BluRay.x264-MELiTE 7.95GB

-->

帖子完整标题:倩女幽魂Ⅲ 道道道 A.Chinese.Ghost.Story.III.1991.1080p.BluRay.x264-MELiTE 7.95GB




◎译  名 倩女幽魂3:道道道 / A Chinese Ghost Story III
◎片  名 倩女幽魂Ⅲ 道道道
◎年  代 1991
◎产  地 中国香港
◎类  别 动作 / 爱情 / 奇幻 / 古装
◎语  言 粤语
◎上映日期 1991-07-18
◎IMDb评分 6.7/10 from 2161 users
◎IMDb链接 https://www.imdb.com/title/tt0102932
◎豆瓣评分 7.4/10 from 67163 users
◎豆瓣链接 https://movie.douban.com/subject/1298040/
◎片  长 109分钟
◎导  演 程小东 Siu-Tung Ching
◎编  剧 徐克 Hark Tsui / 司徒慧焯 Roy Szeto
◎主  演 梁朝伟 Tony Leung Chiu Wai
      张学友 Jacky Cheung
      王祖贤 Joey Wong
      利智 Nina Li Chi
      刘兆铭 Lau Siu Ming
      刘洵 Shun Lau
      刘玉婷 Yuk-Ting Lau
      黄光亮 Kwong Leung Wong
      李子雄 Waise Lee


◎标  签 王祖贤 | 梁朝伟 | 香港 | 徐克 | 香港电影 | 爱情 | 张学友 | 魔幻

◎简  介

  小和尚十方(梁朝伟 饰)随师父白云(刘洵 饰)护送金佛去五台山。路上偶遇痞子道士燕赤霞(张学友 饰)杀死强盗无数,三人结下梁子。十方与师父夜宿鬼寺兰若寺。师父外出打探时,十方遭遇女鬼小卓(王祖贤 饰)。十方不受其诱惑,二人争斗,十方念咒将其制服,但仍好心将其放走。十方将金佛不慎丢失,找到后已破成两段,树妖姥姥趁机发难,白云被活捉。十方在小卓帮助下逃出,外出求人修补金佛却不幸被骗。幸得再遇小道士燕亦霞,得其相助。小卓死敌小蝶(利智 饰)出击勾引二人不成,恼怒之际识破小卓与十方的计划,引姥姥到三人藏匿之处。十方在小卓再次帮助下逃出,并救得师父,小卓却被姥姥抓回折磨。十方与燕赤霞掘出小卓骨灰逃出兰若寺,但姥姥已布下天罗地网,众人危在旦夕,最后关头,十方化成佛祖金身,对付树妖……

◎获奖情况

  第11届香港电影金像奖(1992)
  最佳剪接(提名) 麦子善
  最佳美术指导(提名) 张叔平 / 梁华生
  最佳动作设计(提名) 程小东 / 元彬 / 张耀星 / 马玉成
  最佳原创电影音乐(提名) 戴乐民 / 黄霑
Video
ID : 1
Format : AVC
Format/Info : Advanced Video Codec
Format profile : [email protected]
Format settings : CABAC / 4 Ref Frames
Format settings, CABAC : Yes
Format settings, Reference frames : 4 frames
Codec ID : V_MPEG4/ISO/AVC
Duration : 1 h 49 min
Bit rate : 9 966 kb/s
Width : 1 920 pixels
Height : 1 032 pixels
Display aspect ratio : 1.85:1
Frame rate mode : Constant
Frame rate : 24.000 FPS
Color space : YUV
Chroma subsampling : 4:2:0
Bit depth : 8 bits
Scan type : Progressive
Bits/(Pixel*Frame) : 0.210
Stream size : 7.45 GiB (94%)
Writing library : x264 core 80 r1376 3feaec2
Encoding settings : cabac=1 / ref=4 / deblock=1:0:0 / analyse=0x3:0x133 / me=umh / subme=7 / psy=1 / psy_rd=1.0:0.0 / mixed_ref=1 / me_range=16 / chroma_me=1 / trellis=1 / 8x8dct=1 / cqm=0 / deadzone=21,11 / fast_pskip=0 / chroma_qp_offset=-2 / threads=6 / sliced_threads=0 / nr=0 / decimate=1 / mbaff=0 / constrained_intra=0 / bframes=3 / b_pyramid=0 / b_adapt=1 / b_bias=0 / direct=1 / wpredb=1 / wpredp=2 / keyint=250 / keyint_min=25 / scenecut=40 / rc_lookahead=40 / rc=2pass / mbtree=1 / bitrate=9966 / ratetol=1.0 / qcomp=0.60 / qpmin=10 / qpmax=51 / qpstep=4 / cplxblur=20.0 / qblur=0.5 / ip_ratio=1.40 / aq=1:1.00
Default : Yes
Forced : No

Audio
ID : 2
Format : AC-3
Format/Info : Audio Coding 3
Commercial name : Dolby Digital
Codec ID : A_AC3
Duration : 1 h 49 min
Bit rate mode : Constant
Bit rate : 448 kb/s
Channel(s) : 6 channels
Channel layout : L R C LFE Ls Rs
Sampling rate : 48.0 kHz
Frame rate : 31.250 FPS (1536 SPF)
Bit depth : 16 bits
Compression mode : Lossy
Stream size : 350 MiB (4%)
Language : Chinese
Service kind : Complete Main
Default : Yes
Forced : No

Text
ID : 3
Format : UTF-8
Codec ID : S_TEXT/UTF8
Codec ID/Info : UTF-8 Plain Text
Language : English
Default : Yes
Forced : No





1 个附件 售价 大小 下载 时间

A.Chinese.Ghost.Story.III.1991.1080p.BluRay.x264-MELiTE.torrent 0 金币 40.24K 2982 次 8月前

#1楼
发帖时间:2019-12-10 20:22:54   |   回复数:4
jokingcheung
一代宗师
谢谢分享
8月前 #2楼
liyouchai
隐世仙人♂
谢谢楼主分享资源
8月前 #3楼
911degrees
隐世仙人♂
非常感谢,谢谢分享
8月前 #4楼
tanchoohoon
武林盟主
感谢楼主的无私分享
8月前 #5楼
游客组