coor
一代宗师

[更 早] [其他] [剧情] [BD-1080P] 奶牛 The.Cow.1969.1080p.BluRay.x264-USURY 8.75GB

-->

帖子完整标题:奶牛 The.Cow.1969.1080p.BluRay.x264-USURY 8.75GB




◎译  名 奶牛 / The Cow / 母牛
◎片  名 Gaav
◎年  代 1969
◎产  地 伊朗
◎类  别 剧情
◎语  言 波斯语
◎上映日期 1971-08-26
◎IMDb评分 8.1/10 from 5376 users
◎IMDb链接 https://www.imdb.com/title/tt0064356
◎豆瓣评分 7.8/10 from 178 users
◎豆瓣链接 https://movie.douban.com/subject/1437272/
◎片  长 105 分钟
◎导  演 戴瑞奇·麦瑞 Dariush Mehrjui
◎编  剧 戴瑞奇·麦瑞 Dariush Mehrjui
◎主  演 Ezzatolah Entezami
      Mahmoud Dowlatabadi
      Parviz Fanizadeh


◎标  签 伊朗 | 伊朗电影 | 1969 | 达瑞什·麦赫瑞 | 剧情 | Dariush_Mehrjui | 1960s | 经典

◎简  介

  Masht Hassan在一个遥远和荒凉的村庄里拥有唯一的母牛。他把母牛当作他自己的孩子。当他离开出去远方做事时,他的母牛死了。知道Masht Hassan和他的母牛之间的关系,那些村民急速处理尸体,并当在Masht Hassan回来时,他们告诉他他的母牛逃走了。Masht Hassan疯了,他开始在谷仓里度过他的全部时间,吃干草,并且慢慢地觉得自己就是母牛。
  此片是伊朗的第一代导演达瑞什·麦赫瑞作品,是伊朗新浪潮的开山之作。

◎获奖情况

  第32届威尼斯电影节(1971)
  费比西奖(国际影评人联盟奖) 达里乌什·梅赫尔朱伊
Video
ID : 1
Format : AVC
Format/Info : Advanced Video Codec
Format profile : [email protected]
Format settings : CABAC / 4 Ref Frames
Format settings, CABAC : Yes
Format settings, Reference frames : 4 frames
Codec ID : V_MPEG4/ISO/AVC
Duration : 1 h 44 min
Bit rate : 10.5 Mb/s
Width : 1 808 pixels
Height : 1 080 pixels
Display aspect ratio : 5:3
Frame rate mode : Constant
Frame rate : 24.000 FPS
Color space : YUV
Chroma subsampling : 4:2:0
Bit depth : 8 bits
Scan type : Progressive
Bits/(Pixel*Frame) : 0.223
Stream size : 7.64 GiB (87%)
Writing library : x264 core 157 r2969 d4099dd
Encoding settings : cabac=1 / ref=4 / deblock=1:-3:-3 / analyse=0x3:0x133 / me=umh / subme=9 / psy=1 / psy_rd=1.00:0.00 / mixed_ref=1 / me_range=16 / chroma_me=1 / trellis=2 / 8x8dct=1 / cqm=0 / deadzone=21,11 / fast_pskip=0 / chroma_qp_offset=-2 / threads=18 / lookahead_threads=1 / sliced_threads=0 / nr=0 / decimate=1 / interlaced=0 / bluray_compat=0 / constrained_intra=0 / bframes=3 / b_pyramid=2 / b_adapt=1 / b_bias=0 / direct=3 / weightb=1 / open_gop=0 / weightp=2 / keyint=240 / keyint_min=24 / scenecut=40 / intra_refresh=0 / rc_lookahead=50 / rc=2pass / mbtree=1 / bitrate=10460 / ratetol=1.0 / qcomp=0.60 / qpmin=0 / qpmax=69 / qpstep=4 / cplxblur=20.0 / qblur=0.5 / ip_ratio=1.40 / aq=1:1.00
Language : English
Default : Yes
Forced : No

Audio
ID : 2
Format : DTS
Format/Info : Digital Theater Systems
Codec ID : A_DTS
Duration : 1 h 44 min
Bit rate mode : Constant
Bit rate : 1 509 kb/s
Channel(s) : 2 channels
Channel layout : L R
Sampling rate : 48.0 kHz
Frame rate : 93.750 FPS (512 SPF)
Bit depth : 24 bits
Compression mode : Lossy
Stream size : 1.10 GiB (13%)
Language : Persian
Default : Yes
Forced : No

Text #1
ID : 3
Format : UTF-8
Codec ID : S_TEXT/UTF8
Codec ID/Info : UTF-8 Plain Text
Duration : 1 h 42 min
Bit rate : 19 b/s
Count of elements : 547
Stream size : 14.8 KiB (0%)
Title : English
Language : English
Default : Yes
Forced : Yes

Text #2
ID : 4
Format : UTF-8
Codec ID : S_TEXT/UTF8
Codec ID/Info : UTF-8 Plain Text
Duration : 1 h 42 min
Bit rate : 18 b/s
Count of elements : 543
Stream size : 14.0 KiB (0%)
Title : French
Language : French
Default : No
Forced : No

Menu
00:00:00.000 : en:00:00:00.000
00:07:48.708 : en:00:07:48.708
00:16:00.125 : en:00:16:00.125
00:22:49.083 : en:00:22:49.083
00:29:20.417 : en:00:29:20.417
00:37:37.958 : en:00:37:37.958
00:45:20.833 : en:00:45:20.833
00:52:24.542 : en:00:52:24.542
01:02:55.375 : en:01:02:55.375
01:15:11.875 : en:01:15:11.875
01:24:41.750 : en:01:24:41.750
01:35:46.542 : en:01:35:46.542





1 个附件 售价 大小 下载 时间

The.Cow.1969.1080p.BluRay.x264-USURY.torrent 0 金币 44.35K 483 次 8月前

#1楼
发帖时间:2019-12-09 07:59:38   |   回复数:2
911degrees
隐世仙人♂
非常感谢,谢谢分享
8月前 #2楼
kola13
武林盟主
感谢分享
8月前 #3楼
游客组