coor
武林高手

[更 早] [欧美] [喜剧] [WEB-1080P] 忘情巴黎/巴黎之恋 Forget.Paris.1995.1080p.WEBRip.x264-RARBG 1.93GB

-->

帖子完整标题:忘情巴黎/巴黎之恋 Forget.Paris.1995.1080p.WEBRip.x264-RARBG 1.93GB




◎译  名 忘情巴黎 / 巴黎之恋
◎片  名 Forget Paris
◎年  代 1995
◎产  地 美国
◎类  别 喜剧 / 爱情
◎语  言 英语
◎上映日期 1995-05-19
◎IMDb评分 6.5/10 from 10733 users
◎IMDb链接 https://www.imdb.com/title/tt0113097
◎豆瓣评分 7.8/10 from 632 users
◎豆瓣链接 https://movie.douban.com/subject/1293788/
◎片  长 101 分钟
◎导  演 比利 克里斯特尔 (Billy Crystal)
◎编  剧 巴巴罗 曼德尔 (Babaloo Mandel) / 比利 克里斯特尔 (Billy Crystal) / 洛厄尔 甘兹 (Lowell Ganz)
◎主  演 Billy Crystal
      Debra Winger
      Joe Mantegna


◎标  签 爱情 | 美国 | 喜剧 | 美国电影 | 浪漫 | BillyCrystal | 1995 | 溫情

◎简  介

  米奇(比利·克里斯托 Billy Crystal 饰)是一名铁腕篮球裁判,他深深的热爱着自己的工作。一场意外让米奇结识了名为艾伦(德博拉·温格 Debra Winger 饰)的美丽异国女子,很快,米奇就发现自己无法忘记艾伦的容颜,当他千里迢迢重返法国企图找到艾伦时,才发现艾伦已经结婚了。
  失落的米奇回到了美国,情绪陷入了低谷之中,让他没有想到的是,某日,艾伦竟然出现在了他的面前,甚至为了他辞去了她在法国的职务,就这样,米奇和艾伦开始了共同的生活。然而,生活中的各种摩擦让米奇和艾伦争吵不断,而为了安慰和陪伴艾伦,米奇毅然决定放弃自己心爱的职业,成为了一名销售员。米奇和艾伦都觉得,或许一个孩子的降生能够挽回两人之间伤痕累累的感情,可是直到这时两人才发现,艾伦根本就无法生育。
Video
ID : 1
Format : AVC
Format/Info : Advanced Video Codec
Format profile : [email protected]
Format settings : CABAC / 4 Ref Frames
Format settings, CABAC : Yes
Format settings, Reference frames : 4 frames
Codec ID : avc1
Codec ID/Info : Advanced Video Coding
Duration : 1 h 41 min
Bit rate : 2 500 kb/s
Width : 1 920 pixels
Height : 1 080 pixels
Display aspect ratio : 16:9
Frame rate mode : Constant
Frame rate : 23.976 (23976/1000) FPS
Color space : YUV
Chroma subsampling : 4:2:0
Bit depth : 8 bits
Scan type : Progressive
Bits/(Pixel*Frame) : 0.050
Stream size : 1.77 GiB (92%)
Writing library : x264 core 152 r2851M ba24899
Encoding settings : cabac=1 / ref=4 / deblock=1:-1:-1 / analyse=0x3:0x113 / me=umh / subme=9 / psy=1 / psy_rd=1.00:0.15 / mixed_ref=1 / me_range=24 / chroma_me=1 / trellis=2 / 8x8dct=1 / cqm=0 / deadzone=21,11 / fast_pskip=1 / chroma_qp_offset=-3 / threads=16 / lookahead_threads=4 / sliced_threads=0 / nr=0 / decimate=1 / interlaced=0 / bluray_compat=0 / constrained_intra=0 / bframes=3 / b_pyramid=2 / b_adapt=2 / b_bias=0 / direct=3 / weightb=1 / open_gop=0 / weightp=2 / keyint=250 / keyint_min=25 / scenecut=40 / intra_refresh=0 / rc_lookahead=50 / rc=2pass / mbtree=1 / bitrate=2500 / ratetol=1.0 / qcomp=0.60 / qpmin=0 / qpmax=69 / qpstep=4 / cplxblur=20.0 / qblur=0.5 / vbv_maxrate=31250 / vbv_bufsize=31250 / nal_hrd=none / filler=0 / ip_ratio=1.40 / aq=3:1.00
Encoded date : UTC 2019-12-02 15:13:21
Tagged date : UTC 2019-12-02 15:13:21
Codec configuration box : avcC

Audio
ID : 2
Format : AAC LC
Format/Info : Advanced Audio Codec Low Complexity
Codec ID : mp4a-40-2
Duration : 1 h 41 min
Bit rate mode : Constant
Bit rate : 224 kb/s
Channel(s) : 2 channels
Channel layout : L R
Sampling rate : 48.0 kHz
Frame rate : 46.875 FPS (1024 SPF)
Compression mode : Lossy
Stream size : 162 MiB (8%)
Language : English
Default : Yes
Alternate group : 1
Encoded date : UTC 2019-12-02 15:13:21
Tagged date : UTC 2019-12-02 15:13:21





2 个附件 售价 大小 下载 时间

Silent.Fall.1994.1080p.WEBRip.x264-RARBG.torrent 0 金币 19.82K 140 次 4天前

Forget.Paris.1995.1080p.WEBRip.x264-RARBG.torrent 0 金币 19.88K 266 次 4天前

#1楼
发帖时间:2019-12-03 12:54:55   |   回复数:1
911degrees
隐世仙人♂
非常感谢,谢谢分享
4天前 #2楼
游客组