coor
武林高手

[2018] [欧美] [WEB-1080P] 爱登堡爵士和海龙/史前海怪 Attenborough.And.The.Sea.Dragon.2018.1080p.WEBRip.x264-RARBG 1.01G

-->

帖子完整标题:爱登堡爵士和海龙/史前海怪 Attenborough.And.The.Sea.Dragon.2018.1080p.WEBRip.x264-RARBG 1.01GB




◎译  名 爱登堡爵士和海龙 / 史前海怪
◎片  名 Attenborough and the Sea Dragon
◎年  代 2018
◎产  地 英国
◎语  言 英语
◎上映日期 2018-01-07(英国)
◎IMDb评分 7.3/10 from 214 users
◎IMDb链接 https://www.imdb.com/title/tt7764186
◎豆瓣评分 8.2/10 from 66 users
◎豆瓣链接 https://movie.douban.com/subject/27663801/
◎导  演 迈克尔·冈顿 Michael Gunton
◎编  剧 Sally Thomson
◎主  演 戴维·阿滕伯勒 David Attenborough


◎标  签 纪录片 | BBC | 化石 | 鱼龙 | 英国 | 古生物 | 自然 | 迈克尔·冈顿

◎简  介

  A remarkable 200-million-year-old fossil - the bones of an ichthyosaur, a giant sea dragon - has been discovered on the Jurassic coast of Britain. David Attenborough joins the hunt to bring this ancient creature's story to life. Using state-of-the-art imaging technology and CGI, the team reconstruct the skeleton and create the most detailed animation of an ichthyosaur ever made. Along the way, the team stumble into a 200-million-year-old murder mystery - and only painstaking forensic investigation can unravel the story of this extraordinary creature's fate.
Video
ID : 1
Format : AVC
Format/Info : Advanced Video Codec
Format profile : [email protected]
Format settings : CABAC / 4 Ref Frames
Format settings, CABAC : Yes
Format settings, Reference frames : 4 frames
Codec ID : avc1
Codec ID/Info : Advanced Video Coding
Duration : 53 min 4 s
Bit rate : 2 500 kb/s
Width : 1 920 pixels
Height : 1 080 pixels
Display aspect ratio : 16:9
Frame rate mode : Constant
Frame rate : 25.000 FPS
Color space : YUV
Chroma subsampling : 4:2:0
Bit depth : 8 bits
Scan type : Progressive
Bits/(Pixel*Frame) : 0.048
Stream size : 949 MiB (92%)
Writing library : x264 core 152 r2851M ba24899
Encoding settings : cabac=1 / ref=4 / deblock=1:-1:-1 / analyse=0x3:0x113 / me=umh / subme=9 / psy=1 / psy_rd=1.00:0.15 / mixed_ref=1 / me_range=24 / chroma_me=1 / trellis=2 / 8x8dct=1 / cqm=0 / deadzone=21,11 / fast_pskip=1 / chroma_qp_offset=-3 / threads=16 / lookahead_threads=4 / sliced_threads=0 / nr=0 / decimate=1 / interlaced=0 / bluray_compat=0 / constrained_intra=0 / bframes=3 / b_pyramid=2 / b_adapt=2 / b_bias=0 / direct=3 / weightb=1 / open_gop=0 / weightp=2 / keyint=250 / keyint_min=25 / scenecut=40 / intra_refresh=0 / rc_lookahead=50 / rc=2pass / mbtree=1 / bitrate=2500 / ratetol=1.0 / qcomp=0.60 / qpmin=0 / qpmax=69 / qpstep=4 / cplxblur=20.0 / qblur=0.5 / vbv_maxrate=31250 / vbv_bufsize=31250 / nal_hrd=none / filler=0 / ip_ratio=1.40 / aq=3:1.00
Encoded date : UTC 2019-12-02 19:42:23
Tagged date : UTC 2019-12-02 19:42:23
Codec configuration box : avcC

Audio
ID : 2
Format : AAC LC
Format/Info : Advanced Audio Codec Low Complexity
Codec ID : mp4a-40-2
Duration : 53 min 4 s
Duration_LastFrame : -11 ms
Bit rate mode : Constant
Bit rate : 224 kb/s
Channel(s) : 2 channels
Channel layout : L R
Sampling rate : 48.0 kHz
Frame rate : 46.875 FPS (1024 SPF)
Compression mode : Lossy
Stream size : 85.0 MiB (8%)
Language : English
Default : Yes
Alternate group : 1
Encoded date : UTC 2019-12-02 19:42:23
Tagged date : UTC 2019-12-02 19:42:23





1 个附件 售价 大小 下载 时间

Attenborough.And.The.Sea.Dragon.2018.1080p.WEBRip.x264-RARBG.torrent 0 金币 10.76K 238 次 4天前

#1楼
发帖时间:2019-12-03 12:30:40   |   回复数:2
linyihuangwei
武林盟主
谢谢分享
4天前 #2楼
911degrees
隐世仙人♂
非常感谢,谢谢分享
4天前 #3楼
游客组