conanlcg
超级版主

[更 早] [韩国] [剧情] [BD-1080P] 亲切的金子 Lady.Vengeance.2005.ARROW.KOREAN.1080p.BluRay.x264.DTS-FGT 9.87GB

-->

帖子完整标题:亲切的金子 Lady.Vengeance.2005.ARROW.KOREAN.1080p.BluRay.x264.DTS-FGT 9.87GB




◎译  名 亲切的金子 / Sympathy for Lady Vengeance / 复仇的金子
◎片  名 ??? ???
◎年  代 2005
◎产  地 韩国
◎类  别 剧情 / 惊悚 / 犯罪
◎语  言 韩语 / 英语 / 日语
◎上映日期 2005-07-29(韩国)
◎IMDb评分 7.6/10 from 65930 users
◎IMDb链接 https://www.imdb.com/title/tt0451094
◎豆瓣评分 7.6/10 from 107808 users
◎豆瓣链接 https://movie.douban.com/subject/1412579/
◎片  长 115分钟
◎导  演 朴赞郁 Chan-wook Park
◎编  剧 郑瑞景 Seo-Gyeong Jeong / 朴赞郁 Chan-wook Park
◎主  演 李英爱 Yeong-ae Lee
      崔岷植 Min-sik Choi
      吴达洙 Dal-su Oh
      金时厚 Shi-hoo Kim
      金秉玉 Byeong-ok Kim
      崔政宇 Jung-woo Choi


◎标  签 韩国 | 朴赞郁 | 复仇 | 李英爱 | 韩国电影 | 暴力 | 犯罪 | 剧情

◎简  介

  金子(李英爱饰)20岁时,就因被控“诱拐儿童”入狱而成为头条新闻,人们惊诧于她的美貌、她的年轻。
  在13年的牢狱生活中,有着天使般容貌的她是狱中绝对的模范。金子尽心尽力地帮助身边的每一个人,因此狱友们都称她为“亲切的金子”。表面上金子似乎比谁都诚实守纪,但内心里的复仇火焰一天也没有熄灭。
  当金子出狱后,她还是马上展开复仇计划——它已经暗中策划准备了13年之久的,而狱友们也都在不同的地方帮助着她。
  金子的仇人是当年让她入狱的白老师(崔岷植饰),那是什么让他们在13年前结怨呢?金子又将怎样复仇呢?能否成功?

◎获奖情况

  第62届威尼斯电影节(2005)
  主竞赛单元 金狮奖 (提名) 朴赞郁

  第25届香港电影金像奖(2006)
  最佳亚洲电影(提名)
Video
ID : 1
Format : AVC
Format/Info : Advanced Video Codec
Format profile : [email protected]
Format settings : CABAC / 4 Ref Frames
Format settings, CABAC : Yes
Format settings, Reference frames : 4 frames
Codec ID : V_MPEG4/ISO/AVC
Duration : 1 h 55 min
Bit rate : 11.5 Mb/s
Width : 1 920 pixels
Height : 816 pixels
Display aspect ratio : 2.35:1
Frame rate mode : Constant
Frame rate : 23.976 (24000/1001) FPS
Color space : YUV
Chroma subsampling : 4:2:0
Bit depth : 8 bits
Scan type : Progressive
Bits/(Pixel*Frame) : 0.306
Stream size : 9.25 GiB (94%)
Title : Lady.Vengeance.2005.ARROW.KOREAN.1080p.BluRay.x264.DTS-FGT
Writing library : x264 core 148 r2748 97eaef2
Encoding settings : cabac=1 / ref=4 / deblock=1:-2:-2 / analyse=0x3:0x113 / me=umh / subme=9 / psy=1 / psy_rd=1.00:0.15 / mixed_ref=1 / me_range=16 / chroma_me=1 / trellis=2 / 8x8dct=1 / cqm=0 / deadzone=21,11 / fast_pskip=1 / chroma_qp_offset=-3 / threads=24 / lookahead_threads=3 / sliced_threads=0 / nr=0 / decimate=1 / interlaced=0 / bluray_compat=0 / constrained_intra=0 / bframes=3 / b_pyramid=2 / b_adapt=1 / b_bias=0 / direct=3 / weightb=1 / open_gop=0 / weightp=2 / keyint=250 / keyint_min=25 / scenecut=40 / intra_refresh=0 / rc_lookahead=50 / rc=2pass / mbtree=1 / bitrate=11500 / ratetol=1.0 / qcomp=0.60 / qpmin=0 / qpmax=69 / qpstep=4 / cplxblur=20.0 / qblur=0.5 / vbv_maxrate=31250 / vbv_bufsize=31250 / nal_hrd=none / filler=0 / ip_ratio=1.40 / aq=1:1.00
Language : Korean
Default : Yes
Forced : No

Audio
ID : 2
Format : DTS
Format/Info : Digital Theater Systems
Codec ID : A_DTS
Duration : 1 h 55 min
Bit rate mode : Constant
Bit rate : 768 kb/s
Channel(s) : 6 channels
Channel layout : C L R Ls Rs LFE
Sampling rate : 48.0 kHz
Frame rate : 93.750 FPS (512 SPF)
Bit depth : 16 bits
Compression mode : Lossy
Stream size : 632 MiB (6%)
Title : Lady.Vengeance.2005.ARROW.KOREAN.1080p.BluRay.x264.DTS-FGT
Language : Korean
Default : Yes
Forced : No

Text
ID : 3
Format : UTF-8
Codec ID : S_TEXT/UTF8
Codec ID/Info : UTF-8 Plain Text
Duration : 1 h 49 min
Bit rate : 25 b/s
Count of elements : 630
Stream size : 20.5 KiB (0%)
Language : English
Default : Yes
Forced : No

Menu
00:00:00.000 : en:Chapter 1
00:10:10.068 : en:Chapter 2
00:20:40.823 : en:Chapter 3
00:31:53.537 : en:Chapter 4
00:38:15.126 : en:Chapter 5
00:46:29.704 : en:Chapter 6
00:55:26.198 : en:Chapter 7
01:03:10.453 : en:Chapter 8
01:16:57.822 : en:Chapter 9
01:29:01.336 : en:Chapter 10
01:37:01.607 : en:Chapter 11
01:46:09.655 : en:Chapter 12





1 个附件 售价 大小 下载 时间

Lady.Vengeance.2005.ARROW.KOREAN.1080p.BluRay.x264.DTS-FGT.torrent 0 金币 49.87K 973 次 3天前

#1楼
发帖时间:2019-11-09 06:57:45   |   回复数:2
911degrees
隐世仙人♂
非常感谢,谢谢分享
3天前 #2楼
tanchoohoon
武林盟主
感谢楼主的无私分享
3天前 #3楼
游客组