conanlcg
超级版主

[2007] [欧美] [剧情] [BD-1080P] 第五位病人 The.Fifth.Patient.2007.1080p.BluRay.x264-THUGLiNE 7.95GB

-->

帖子完整标题:第五位病人 The.Fifth.Patient.2007.1080p.BluRay.x264-THUGLiNE 7.95GB




◎译  名 第五位病人
◎片  名 The Fifth Patient
◎年  代 2007
◎产  地 美国
◎类  别 剧情 / 惊悚
◎语  言 英语
◎上映日期 2007-06-10
◎IMDb评分 5.1/10 from 312 users
◎IMDb链接 https://www.imdb.com/title/tt0481519
◎豆瓣评分 0/10 from 0 users
◎豆瓣链接 https://movie.douban.com/subject/2055814/
◎导  演 Amir Mann
◎编  剧 Amir Mann
◎主  演 Nick Chinlund
      Isaach De Bankolé
      Brendan Fehr


◎标  签 美国 | 惊悚 | 悬疑 | 剧情 | movie | M美国 | D彼得·博格丹诺维奇 | 2007

◎简  介

  暂无相关剧情介绍
Video
ID : 2
Format : AVC
Format/Info : Advanced Video Codec
Format profile : [email protected]
Format settings : CABAC / 5 Ref Frames
Format settings, CABAC : Yes
Format settings, Reference frames : 5 frames
Codec ID : V_MPEG4/ISO/AVC
Duration : 1 h 32 min
Bit rate : 10.6 Mb/s
Nominal bit rate : 11.3 Mb/s
Width : 1 920 pixels
Height : 816 pixels
Display aspect ratio : 2.35:1
Frame rate mode : Constant
Frame rate : 23.976 FPS
Color space : YUV
Chroma subsampling : 4:2:0
Bit depth : 8 bits
Scan type : Progressive
Bits/(Pixel*Frame) : 0.282
Stream size : 6.82 GiB (86%)
Writing library : x264 core 79 r1347 5ddd61b
Encoding settings : cabac=1 / ref=5 / deblock=1:0:0 / analyse=0x3:0x133 / me=umh / subme=7 / psy=1 / psy_rd=1.0:0.0 / mixed_ref=1 / me_range=16 / chroma_me=1 / trellis=1 / 8x8dct=1 / cqm=0 / deadzone=21,11 / chroma_qp_offset=-2 / threads=12 / nr=0 / decimate=1 / mbaff=0 / constrained_intra=0 / bframes=3 / b_pyramid=0 / b_adapt=1 / b_bias=0 / direct=1 / wpredb=1 / wpredp=2 / keyint=250 / keyint_min=25 / scenecut=40 / rc_lookahead=40 / rc=2pass / mbtree=1 / bitrate=11319 / ratetol=1.0 / qcomp=0.60 / qpmin=10 / qpmax=51 / qpstep=4 / cplxblur=20.0 / qblur=0.5 / ip_ratio=1.40 / aq=1:1.00
Language : English
Default : No
Forced : No

Audio
ID : 1
Format : DTS
Format/Info : Digital Theater Systems
Codec ID : A_DTS
Duration : 1 h 32 min
Bit rate mode : Constant
Bit rate : 1 509 kb/s
Channel(s) : 6 channels
Channel layout : C L R Ls Rs LFE
Sampling rate : 48.0 kHz
Frame rate : 93.750 FPS (512 SPF)
Bit depth : 24 bits
Compression mode : Lossy
Stream size : 995 MiB (12%)
Language : English
Default : Yes
Forced : No





1 个附件 售价 大小 下载 时间

The.Fifth.Patient.2007.1080p.BluRay.x264-THUGLiNE.torrent 0 金币 40.23K 196 次 11天前

#1楼
发帖时间:2019-11-09 06:51:33   |   回复数:1
911degrees
隐世仙人♂
非常感谢,谢谢分享
11天前 #2楼
游客组