conanlcg
超级版主

[更 早] [欧美] [剧情] [WEB-1080P] 漂亮宝贝/永不后悔爱上你 Guinevere.1999.1080p.AMZN.WEBRip.DDP2.0.x264-monkee 8.78GB

-->

帖子完整标题:漂亮宝贝/永不后悔爱上你 Guinevere.1999.1080p.AMZN.WEBRip.DDP2.0.x264-monkee 8.78GB




◎译  名 漂亮宝贝 / 永不后悔爱上你
◎片  名 Guinevere
◎年  代 1999
◎产  地 美国
◎类  别 剧情 / 爱情
◎语  言 英语
◎上映日期 1999-11-12
◎IMDb评分 6.0/10 from 2305 users
◎IMDb链接 https://www.imdb.com/title/tt0160338
◎豆瓣评分 6.7/10 from 45 users
◎豆瓣链接 https://movie.douban.com/subject/1294400/
◎片  长 104 分钟
◎导  演 Audrey Wells
◎编  剧 Audrey Wells
◎主  演 Sarah Polley
      Stephen Rea
      Jean Smart


◎标  签 爱情 | 美国 | 莎拉·波莉 | 电影 | 美国电影 | 青春 | 漂亮宝贝 | 海外电影

◎简  介

  哈珀(萨拉·波莉 饰)是个与家庭隔阂颇深的年轻大学毕业生,对专制的母亲、高傲的姐姐、淡漠的父亲非常失望,当内心孤独的哈珀在她姐姐的婚礼上见到摄影师康尼(斯蒂芬·瑞 饰)后,终觉找到了心灵的另一半。尽管康尼比她年长30岁,但面对这位迷人的爱尔兰波希米亚人,面对奇妙的爱情感应,哈珀放弃了心仪已久的哈佛法学院,决心为了康尼改学摄影。从此她成了康尼的“漂亮宝贝”。然而,有一天,哈珀发现康尼的“漂亮宝贝”不止她一个,哈珀陷入了痛苦中……
Video
ID : 1
Format : AVC
Format/Info : Advanced Video Codec
Format profile : [email protected]
Format settings : CABAC / 4 Ref Frames
Format settings, CABAC : Yes
Format settings, Reference frames : 4 frames
Codec ID : V_MPEG4/ISO/AVC
Duration : 1 h 44 min
Bit rate mode : Variable
Bit rate : 11.8 Mb/s
Maximum bit rate : 15.0 Mb/s
Width : 1 920 pixels
Height : 1 040 pixels
Display aspect ratio : 1.85:1
Frame rate mode : Constant
Frame rate : 23.976 (24000/1001) FPS
Color space : YUV
Chroma subsampling : 4:2:0
Bit depth : 8 bits
Scan type : Progressive
Bits/(Pixel*Frame) : 0.245
Stream size : 8.61 GiB (98%)
Default : Yes
Forced : No
Color range : Limited
Color primaries : BT.709
Transfer characteristics : BT.709
Matrix coefficients : BT.709

Audio
ID : 2
Format : E-AC-3
Format/Info : Enhanced AC-3
Commercial name : Dolby Digital Plus
Codec ID : A_EAC3
Duration : 1 h 44 min
Bit rate mode : Constant
Bit rate : 224 kb/s
Channel(s) : 2 channels
Channel layout : L R
Sampling rate : 48.0 kHz
Frame rate : 31.250 FPS (1536 SPF)
Compression mode : Lossy
Stream size : 168 MiB (2%)
Language : English
Service kind : Complete Main
Default : Yes
Forced : No

Text
ID : 3
Format : UTF-8
Codec ID : S_TEXT/UTF8
Codec ID/Info : UTF-8 Plain Text
Duration : 1 h 42 min
Bit rate : 58 b/s
Count of elements : 1407
Stream size : 43.7 KiB (0%)
Language : English
Default : No
Forced : No





1 个附件 售价 大小 下载 时间

Guinevere.1999.1080p.AMZN.WEBRip.DDP2.0.x264-monkee.torrent 0 金币 88.34K 448 次 11天前

#1楼
发帖时间:2019-11-09 05:24:36   |   回复数:1
911degrees
隐世仙人♂
非常感谢,谢谢分享
11天前 #2楼
游客组