conanlcg
超级版主

[更 早] [欧美] [喜剧] [WEB-1080P] 美丽的伪证/锁不住的惊情 Her.Alibi.1989.1080p.AMZN.WEBRip.AAC2.0.x264-ABM 6.63GB

-->

帖子完整标题:美丽的伪证/锁不住的惊情 Her.Alibi.1989.1080p.AMZN.WEBRip.AAC2.0.x264-ABM 6.63GB




◎译  名 美丽的伪证 / 锁不住的惊情
◎片  名 Her Alibi
◎年  代 1989
◎产  地 美国
◎类  别 喜剧 / 爱情 / 悬疑 / 犯罪
◎语  言 英语 / 罗马尼亚语 / 西班牙语
◎上映日期 1989-02-03
◎IMDb评分 5.8/10 from 6450 users
◎IMDb链接 https://www.imdb.com/title/tt0097500
◎豆瓣评分 0/10 from 0 users
◎豆瓣链接 https://movie.douban.com/subject/1294275/
◎片  长 94分钟
◎导  演 Bruce Beresford
◎编  剧 Charlie Peters
◎主  演 Tom Selleck
      Paulina Porizkova
      William Daniels


◎标  签 喜剧 | 爱情 | 美国 | 1989 | 美国电影 | HBO | 1980s | 电影

◎简  介

  一名悬疑小说作家,刚被妻子抛弃,他想藉由法庭的审案过程获取灵感创作一部小说,不料却阴差阳错地认识了正以谋杀罪被起诉的保利纳,并迅速陷入了她的感情陷阱之中,自愿提供她不在谋杀现场的伪证,还邀她回家里居住,以便针对她进行新书的创作。在保利纳美丽的外表下,到底是不是一个包藏祸心的蛇蝎美人呢?
Video
ID : 1
Format : AVC
Format/Info : Advanced Video Codec
Format profile : [email protected]
Format settings : CABAC / 4 Ref Frames
Format settings, CABAC : Yes
Format settings, Reference frames : 4 frames
Format settings, GOP : M=4, N=48
Codec ID : V_MPEG4/ISO/AVC
Duration : 1 h 34 min
Bit rate mode : Constant
Bit rate : 10 000 kb/s
Width : 1 920 pixels
Height : 1 080 pixels
Display aspect ratio : 16:9
Frame rate mode : Constant
Frame rate : 23.976 (24000/1001) FPS
Color space : YUV
Chroma subsampling : 4:2:0
Bit depth : 8 bits
Scan type : Progressive
Bits/(Pixel*Frame) : 0.201
Stream size : 6.55 GiB (99%)
Language : English
Default : Yes
Forced : No
Color range : Limited
Color primaries : BT.709
Transfer characteristics : BT.709
Matrix coefficients : BT.709

Audio
ID : 2
Format : AAC LC
Format/Info : Advanced Audio Codec Low Complexity
Codec ID : A_AAC-2
Duration : 1 h 34 min
Bit rate : 125 kb/s
Channel(s) : 2 channels
Channel layout : L R
Sampling rate : 48.0 kHz
Frame rate : 46.875 FPS (1024 SPF)
Compression mode : Lossy
Stream size : 84.5 MiB (1%)
Language : English
Default : Yes
Forced : No

Text #1
ID : 3
Format : UTF-8
Codec ID : S_TEXT/UTF8
Codec ID/Info : UTF-8 Plain Text
Duration : 1 h 31 min
Bit rate : 56 b/s
Count of elements : 1572
Stream size : 37.6 KiB (0%)
Language : English
Default : No
Forced : No

Text #2
ID : 4
Format : UTF-8
Codec ID : S_TEXT/UTF8
Codec ID/Info : UTF-8 Plain Text
Duration : 1 h 31 min
Bit rate : 56 b/s
Count of elements : 1608
Stream size : 38.1 KiB (0%)
Title : SDH
Language : English
Default : No
Forced : No





1 个附件 售价 大小 下载 时间

Her.Alibi.1989.1080p.AMZN.WEBRip.AAC2.0.x264-ABM.torrent 0 金币 66.83K 490 次 11天前

#1楼
发帖时间:2019-11-09 05:19:50   |   回复数:1
911degrees
隐世仙人♂
非常感谢,谢谢分享
11天前 #2楼
游客组