conanlcg
超级版主

[更 早] [其他] [剧情] [WEB-1080P] 恋恋巴黎/幸福合作社 Le.Divorce.2003.1080p.AMZN.WEBRip.DDP5.1.x264-ABM 5.20GB

-->

帖子完整标题:恋恋巴黎/幸福合作社 Le.Divorce.2003.1080p.AMZN.WEBRip.DDP5.1.x264-ABM 5.20GB




◎译  名 恋恋巴黎 / 幸福合作社 / 离婚
◎片  名 Le divorce
◎年  代 2003
◎产  地 法国 / 美国
◎类  别 剧情 / 喜剧 / 爱情
◎语  言 英语 / 法语
◎上映日期 2003-08-29
◎IMDb评分 4.9/10 from 10682 users
◎IMDb链接 https://www.imdb.com/title/tt0306734
◎豆瓣评分 6.5/10 from 943 users
◎豆瓣链接 https://movie.douban.com/subject/1297565/
◎片  长 117 分钟
◎导  演 詹姆斯·伊沃里 James Ivory
◎编  剧 詹姆斯·伊沃里 James Ivory / 鲁丝·普罗厄·贾布瓦拉 Ruth Prawer Jhabvala
◎主  演 凯特·哈德森 Kate Hudson
      娜奥米·沃茨 Naomi Watts
      斯托卡特·詹宁 Stockard Channing
      罗曼·杜里斯 Romain Duris
      梅尔维尔·珀波 Melvil Poupaud
      蒂埃里·莱尔米特 Thierry Lhermitte
      莱斯利·卡伦 Leslie Caron
      格伦·克洛斯 Glenn Close
      斯蒂芬·弗雷 Stephen Fry


◎标  签 爱情 | 美国 | 法国 | NaomiWatts | KateHudson | 美国电影 | 2003 | 法國

◎简  介

  由于受不了严谨的校纪校规,女孩伊莎贝尔(凯特·哈德森 Kate Hudson 饰)毅然离开了电影学院,过上了她所渴望的自由生活。伊莎贝尔的姐姐罗茜妮(娜奥米·沃茨 Naomi Watts 饰)定居于法国巴黎,身怀六甲的她惨遭画家丈夫查尔斯(梅尔维尔·珀波 Melvil Poupaud 饰)的背叛,愤怒的罗茜妮决定离婚,她给伊莎贝尔写了一封信,希望自己的妹妹能够来到自己身边,支持和陪伴她度过这一段艰难时期。
  一次偶然中,伊莎贝尔结识了名叫埃德加(蒂埃里·莱尔米特 Thierry Lhermitte 饰)的法国外交官,尽管埃德加已经是一个七十岁高龄的老人了,但伊莎贝尔依旧拜倒在了他的慷慨大方和风度翩翩之中。尽管伊莎贝尔和埃德加之间的恋情并不被他人所看好,但伊莎贝尔依然坚持着自己的想法和信念,直到某一日,她发现,埃德加竟然是自己的亲戚。
Video
ID : 1
Format : AVC
Format/Info : Advanced Video Codec
Format profile : [email protected]
Format settings : CABAC / 4 Ref Frames
Format settings, CABAC : Yes
Format settings, Reference frames : 4 frames
Codec ID : V_MPEG4/ISO/AVC
Duration : 1 h 57 min
Bit rate mode : Variable
Bit rate : 5 704 kb/s
Maximum bit rate : 15.0 Mb/s
Width : 1 920 pixels
Height : 800 pixels
Display aspect ratio : 2.40:1
Frame rate mode : Constant
Frame rate : 23.976 (24000/1001) FPS
Color space : YUV
Chroma subsampling : 4:2:0
Bit depth : 8 bits
Scan type : Progressive
Bits/(Pixel*Frame) : 0.155
Stream size : 4.67 GiB (90%)
Writing library : x264 core 148 r2623 d5b2374
Encoding settings : cabac=1 / ref=4 / deblock=1:-1:-1 / analyse=0x3:0x133 / me=umh / subme=9 / psy=1 / psy_rd=1.00:0.15 / mixed_ref=1 / me_range=24 / chroma_me=1 / trellis=2 / 8x8dct=1 / cqm=0 / deadzone=21,11 / fast_pskip=1 / chroma_qp_offset=-3 / threads=25 / lookahead_threads=4 / sliced_threads=0 / nr=150 / decimate=1 / interlaced=0 / bluray_compat=0 / constrained_intra=0 / bframes=8 / b_pyramid=2 / b_adapt=2 / b_bias=0 / direct=3 / weightb=1 / open_gop=0 / weightp=2 / keyint=120 / keyint_min=61 / scenecut=0 / intra_refresh=0 / rc_lookahead=120 / rc=crf / mbtree=1 / crf=18.0 / qcomp=0.60 / qpmin=0 / qpmax=69 / qpstep=4 / vbv_maxrate=15000 / vbv_bufsize=31250 / crf_max=0.0 / nal_hrd=vbr / filler=0 / ip_ratio=1.40 / aq=3:1.00
Default : Yes
Forced : No
Color range : Limited
Color primaries : BT.709
Transfer characteristics : BT.709
Matrix coefficients : BT.709

Audio
ID : 2
Format : E-AC-3
Format/Info : Enhanced AC-3
Commercial name : Dolby Digital Plus
Codec ID : A_EAC3
Duration : 1 h 57 min
Bit rate mode : Constant
Bit rate : 640 kb/s
Channel(s) : 6 channels
Channel layout : L R C LFE Ls Rs
Sampling rate : 48.0 kHz
Frame rate : 31.250 FPS (1536 SPF)
Compression mode : Lossy
Stream size : 537 MiB (10%)
Language : English
Service kind : Complete Main
Default : Yes
Forced : No

Text
ID : 3
Format : UTF-8
Codec ID : S_TEXT/UTF8
Codec ID/Info : UTF-8 Plain Text
Duration : 1 h 53 min
Bit rate : 71 b/s
Count of elements : 1536
Stream size : 59.5 KiB (0%)
Language : English
Default : No
Forced : No

Menu
00:00:00.000 : en:(Unnamed scene)
00:00:27.000 : en:(Unnamed scene)
00:03:06.000 : en:(Unnamed scene)
00:06:15.000 : en:(Unnamed scene)
00:07:55.000 : en:(Unnamed scene)
00:09:08.000 : en:(Unnamed scene)
00:11:08.000 : en:(Unnamed scene)
00:12:13.000 : en:(Unnamed scene)
00:14:45.000 : en:(Unnamed scene)
00:15:43.000 : en:(Unnamed scene)
00:17:15.000 : en:(Unnamed scene)
00:19:26.000 : en:(Unnamed scene)
00:21:31.000 : en:(Unnamed scene)
00:23:44.000 : en:(Unnamed scene)
00:25:55.000 : en:(Unnamed scene)
00:27:30.000 : en:(Unnamed scene)
00:29:57.000 : en:(Unnamed scene)
00:31:28.000 : en:(Unnamed scene)
00:32:46.000 : en:(Unnamed scene)
00:35:15.000 : en:(Unnamed scene)
00:37:25.000 : en:(Unnamed scene)
00:39:39.000 : en:(Unnamed scene)
00:41:22.000 : en:(Unnamed scene)
00:44:22.000 : en:(Unnamed scene)
00:48:05.000 : en:(Unnamed scene)
00:50:59.000 : en:(Unnamed scene)
00:55:19.000 : en:(Unnamed scene)
00:57:40.000 : en:(Unnamed scene)
00:58:59.000 : en:(Unnamed scene)
01:00:36.000 : en:(Unnamed scene)
01:02:44.000 : en:(Unnamed scene)
01:04:50.000 : en:(Unnamed scene)
01:05:57.000 : en:(Unnamed scene)
01:08:37.000 : en:(Unnamed scene)
01:10:15.000 : en:(Unnamed scene)
01:11:24.000 : en:(Unnamed scene)
01:16:47.000 : en:(Unnamed scene)
01:17:39.000 : en:(Unnamed scene)
01:20:59.000 : en:(Unnamed scene)
01:22:50.000 : en:(Unnamed scene)
01:25:10.000 : en:(Unnamed scene)
01:26:29.000 : en:(Unnamed scene)
01:30:09.000 : en:(Unnamed scene)
01:32:59.000 : en:(Unnamed scene)
01:35:06.000 : en:(Unnamed scene)
01:37:02.000 : en:(Unnamed scene)
01:38:47.000 : en:(Unnamed scene)
01:41:39.000 : en:(Unnamed scene)
01:44:52.000 : en:(Unnamed scene)
01:47:13.000 : en:(Unnamed scene)
01:49:57.000 : en:(Unnamed scene)
01:52:56.000 : en:(Unnamed scene)
01:54:23.000 : en:(Unnamed scene)





1 个附件 售价 大小 下载 时间

Le.Divorce.2003.1080p.AMZN.WEBRip.DDP5.1.x264-ABM.torrent 0 金币 52.51K 259 次 11天前

#1楼
发帖时间:2019-11-09 05:14:17   |   回复数:1
911degrees
隐世仙人♂
非常感谢,谢谢分享
11天前 #2楼
游客组