conanlcg
超级版主

[2017] [欧美] [喜剧] [WEB-1080P] 萨拉·西尔弗曼:一尘不染/莎拉·席尔蔓:一颗尘埃 Sarah.Silverman.A.Speck.of.Dust.2017.1080p.NF.WEBRip.DD

-->

帖子完整标题:萨拉·西尔弗曼:一尘不染/莎拉·席尔蔓:一颗尘埃 Sarah.Silverman.A.Speck.of.Dust.2017.1080p.NF.WEBRip.DD5.1.x264-FGT 2.49GB




◎译  名 萨拉·西尔弗曼:一尘不染 / 莎拉·席尔蔓:一颗尘埃(港) / 萨拉·丝沃曼:一尘不染
◎片  名 Sarah Silverman: A Speck of Dust
◎年  代 2017
◎产  地 美国
◎类  别 喜剧
◎语  言 英语
◎上映日期 2017-05-30(美国)
◎IMDb评分 6.8/10 from 2885 users
◎IMDb链接 https://www.imdb.com/title/tt6948354
◎豆瓣评分 7.3/10 from 322 users
◎豆瓣链接 https://movie.douban.com/subject/27060162/
◎片  长 71分钟
◎编  剧 萨拉·西尔弗曼 Sarah Silverman
◎主  演 萨拉·西尔弗曼 Sarah Silverman


◎标  签 Stand-Up | Netflix | 美国 | 脱口秀 | Comedy | 喜剧 | 2017 | stand-up

◎简  介

  在死里逃生之后的首个喜剧特辑中,萨拉·西尔弗曼分享一系列有趣的事实、可悲的真相和任性而为的瞬间。
  在二十余载的职业生涯中,西尔弗曼曾获得五次艾美奖提名,其中两次捧回奖杯。
Video
ID : 1
Format : AVC
Format/Info : Advanced Video Codec
Format profile : [email protected]
Format settings : CABAC / 4 Ref Frames
Format settings, CABAC : Yes
Format settings, Reference frames : 4 frames
Codec ID : V_MPEG4/ISO/AVC
Duration : 1 h 11 min
Bit rate : 4 636 kb/s
Width : 1 920 pixels
Height : 1 012 pixels
Display aspect ratio : 1.897
Frame rate mode : Constant
Frame rate : 23.976 (24000/1001) FPS
Color space : YUV
Chroma subsampling : 4:2:0
Bit depth : 8 bits
Scan type : Progressive
Bits/(Pixel*Frame) : 0.100
Stream size : 2.30 GiB (92%)
Writing library : x264 core 148 r2744 b97ae06
Encoding settings : cabac=1 / ref=4 / deblock=1:-3:-3 / analyse=0x3:0x133 / me=umh / subme=11 / psy=1 / psy_rd=1.00:0.15 / mixed_ref=1 / me_range=48 / chroma_me=1 / trellis=2 / 8x8dct=1 / cqm=0 / deadzone=21,11 / fast_pskip=0 / chroma_qp_offset=-3 / threads=12 / lookahead_threads=3 / sliced_threads=0 / nr=0 / decimate=0 / interlaced=0 / bluray_compat=0 / constrained_intra=0 / bframes=10 / b_pyramid=2 / b_adapt=2 / b_bias=0 / direct=3 / weightb=1 / open_gop=0 / weightp=2 / keyint=250 / keyint_min=23 / scenecut=40 / intra_refresh=0 / rc=crf / mbtree=0 / crf=18.0 / qcomp=0.60 / qpmin=0 / qpmax=69 / qpstep=4 / ip_ratio=1.40 / pb_ratio=1.30 / aq=3:0.70
Language : English
Default : Yes
Forced : No

Audio
ID : 2
Format : AC-3
Format/Info : Audio Coding 3
Commercial name : Dolby Digital
Codec ID : A_AC3
Duration : 1 h 11 min
Bit rate mode : Constant
Bit rate : 384 kb/s
Channel(s) : 6 channels
Channel layout : L R C LFE Ls Rs
Sampling rate : 48.0 kHz
Frame rate : 31.250 FPS (1536 SPF)
Bit depth : 16 bits
Compression mode : Lossy
Stream size : 195 MiB (8%)
Language : English
Service kind : Complete Main
Default : Yes
Forced : No

Text #1
ID : 3
Format : UTF-8
Codec ID : S_TEXT/UTF8
Codec ID/Info : UTF-8 Plain Text
Duration : 1 h 10 min
Bit rate : 96 b/s
Count of elements : 1400
Stream size : 49.7 KiB (0%)
Title : English
Language : English
Default : No
Forced : No

Text #2
ID : 4
Format : UTF-8
Codec ID : S_TEXT/UTF8
Codec ID/Info : UTF-8 Plain Text
Duration : 1 h 10 min
Bit rate : 84 b/s
Count of elements : 1246
Stream size : 43.8 KiB (0%)
Title : Spanish
Language : Spanish
Default : No
Forced : No

Text #3
ID : 5
Format : UTF-8
Codec ID : S_TEXT/UTF8
Codec ID/Info : UTF-8 Plain Text
Duration : 1 h 10 min
Bit rate : 84 b/s
Count of elements : 1254
Stream size : 44.0 KiB (0%)
Title : French
Language : French
Default : No
Forced : No

Text #4
ID : 6
Format : UTF-8
Codec ID : S_TEXT/UTF8
Codec ID/Info : UTF-8 Plain Text
Duration : 1 h 10 min
Bit rate : 125 b/s
Count of elements : 1244
Stream size : 65.0 KiB (0%)
Title : Arabic
Language : Arabic
Default : No
Forced : No

Text #5
ID : 7
Format : UTF-8
Codec ID : S_TEXT/UTF8
Codec ID/Info : UTF-8 Plain Text
Duration : 1 h 10 min
Bit rate : 76 b/s
Count of elements : 1231
Stream size : 39.7 KiB (0%)
Title : Danish
Language : Danish
Default : No
Forced : No

Text #6
ID : 8
Format : UTF-8
Codec ID : S_TEXT/UTF8
Codec ID/Info : UTF-8 Plain Text
Duration : 1 h 10 min
Bit rate : 78 b/s
Count of elements : 1061
Stream size : 40.8 KiB (0%)
Title : Dutch
Language : Dutch
Default : No
Forced : No

Text #7
ID : 9
Format : UTF-8
Codec ID : S_TEXT/UTF8
Codec ID/Info : UTF-8 Plain Text
Duration : 1 h 10 min
Bit rate : 83 b/s
Count of elements : 1221
Stream size : 43.2 KiB (0%)
Title : German
Language : German
Default : No
Forced : No

Text #8
ID : 10
Format : UTF-8
Codec ID : S_TEXT/UTF8
Codec ID/Info : UTF-8 Plain Text
Duration : 1 h 10 min
Bit rate : 137 b/s
Count of elements : 1244
Stream size : 71.5 KiB (0%)
Title : Greek
Language : Greek
Default : No
Forced : No

Text #9
ID : 11
Format : UTF-8
Codec ID : S_TEXT/UTF8
Codec ID/Info : UTF-8 Plain Text
Duration : 1 h 10 min
Bit rate : 131 b/s
Count of elements : 1244
Stream size : 68.0 KiB (0%)
Title : Hebrew
Language : Hebrew
Default : No
Forced : No

Text #10
ID : 12
Format : UTF-8
Codec ID : S_TEXT/UTF8
Codec ID/Info : UTF-8 Plain Text
Duration : 1 h 10 min
Bit rate : 90 b/s
Count of elements : 1244
Stream size : 47.0 KiB (0%)
Title : Italian
Language : Italian
Default : No
Forced : No

Text #11
ID : 13
Format : UTF-8
Codec ID : S_TEXT/UTF8
Codec ID/Info : UTF-8 Plain Text
Duration : 1 h 10 min
Bit rate : 74 b/s
Count of elements : 1091
Stream size : 38.8 KiB (0%)
Title : Japanese
Language : Japanese
Default : No
Forced : No

Text #12
ID : 14
Format : UTF-8
Codec ID : S_TEXT/UTF8
Codec ID/Info : UTF-8 Plain Text
Duration : 1 h 10 min
Bit rate : 100 b/s
Count of elements : 1307
Stream size : 52.0 KiB (0%)
Title : Korean
Language : Korean
Default : No
Forced : No

Text #13
ID : 15
Format : UTF-8
Codec ID : S_TEXT/UTF8
Codec ID/Info : UTF-8 Plain Text
Duration : 1 h 10 min
Bit rate : 77 b/s
Count of elements : 1200
Stream size : 40.5 KiB (0%)
Title : Norweigan
Language : Norwegian
Default : No
Forced : No

Text #14
ID : 16
Format : UTF-8
Codec ID : S_TEXT/UTF8
Codec ID/Info : UTF-8 Plain Text
Duration : 1 h 10 min
Bit rate : 83 b/s
Count of elements : 1244
Stream size : 43.5 KiB (0%)
Title : Polish
Language : Polish
Default : No
Forced : No

Text #15
ID : 17
Format : UTF-8
Codec ID : S_TEXT/UTF8
Codec ID/Info : UTF-8 Plain Text
Duration : 1 h 10 min
Bit rate : 80 b/s
Count of elements : 1244
Stream size : 42.0 KiB (0%)
Title : Portugese (Brazilian)
Language : Portuguese
Default : No
Forced : No

Text #16
ID : 18
Format : UTF-8
Codec ID : S_TEXT/UTF8
Codec ID/Info : UTF-8 Plain Text
Duration : 1 h 10 min
Bit rate : 83 b/s
Count of elements : 1244
Stream size : 43.6 KiB (0%)
Title : Portugese (European)
Language : Portuguese
Default : No
Forced : No

Text #17
ID : 19
Format : UTF-8
Codec ID : S_TEXT/UTF8
Codec ID/Info : UTF-8 Plain Text
Duration : 1 h 10 min
Bit rate : 95 b/s
Count of elements : 1244
Stream size : 49.8 KiB (0%)
Title : Romanian
Language : Romanian
Default : No
Forced : No

Text #18
ID : 20
Format : UTF-8
Codec ID : S_TEXT/UTF8
Codec ID/Info : UTF-8 Plain Text
Duration : 1 h 10 min
Bit rate : 80 b/s
Count of elements : 1248
Stream size : 41.9 KiB (0%)
Title : Spanish (European)
Language : Spanish
Default : No
Forced : No

Text #19
ID : 21
Format : UTF-8
Codec ID : S_TEXT/UTF8
Codec ID/Info : UTF-8 Plain Text
Duration : 1 h 10 min
Bit rate : 82 b/s
Count of elements : 1218
Stream size : 43.0 KiB (0%)
Title : Swedish
Language : Swedish
Default : No
Forced : No

Text #20
ID : 22
Format : UTF-8
Codec ID : S_TEXT/UTF8
Codec ID/Info : UTF-8 Plain Text
Duration : 1 h 10 min
Bit rate : 191 b/s
Count of elements : 1244
Stream size : 99.4 KiB (0%)
Title : Thai
Language : Thai
Default : No
Forced : No

Text #21
ID : 23
Format : UTF-8
Codec ID : S_TEXT/UTF8
Codec ID/Info : UTF-8 Plain Text
Duration : 1 h 10 min
Bit rate : 81 b/s
Count of elements : 1244
Stream size : 42.5 KiB (0%)
Title : Turkish
Language : Turkish
Default : No
Forced : No





1 个附件 售价 大小 下载 时间

Sarah.Silverman.A.Speck.of.Dust.2017.1080p.NF.WEBRip.DD5.1.x264-FGT.torrent 0 金币 50.50K 147 次 11天前

#1楼
发帖时间:2019-11-09 05:03:49   |   回复数:1
911degrees
隐世仙人♂
非常感谢,谢谢分享
11天前 #2楼
游客组