conanlcg
超级版主

[2017] [欧美] [其他] [WEB-1080P] 坚强之岛 Strong.Island.2017.1080p.NF.WEBRip.DD5.1.x264-SiGMA 3.70GB

-->

帖子完整标题:坚强之岛 Strong.Island.2017.1080p.NF.WEBRip.DD5.1.x264-SiGMA 3.70GB




◎译  名 坚强之岛
◎片  名 Strong Island
◎年  代 2017
◎产  地 美国
◎类  别 纪录片
◎语  言 英语
◎上映日期 2017-01-15(圣丹斯电影节)
◎IMDb评分 6.4/10 from 2998 users
◎IMDb链接 https://www.imdb.com/title/tt5873150
◎豆瓣评分 5.8/10 from 185 users
◎豆瓣链接 https://movie.douban.com/subject/26929016/
◎片  长 107分钟
◎导  演 恩斯·福特 Yance Ford
◎编  剧 恩斯·福特 Yance Ford
◎主  演 恩斯·福特 Yance Ford
      Harvey Walker
      Ed Boyar


◎标  签 纪录片 | 美国 | 2017 | Documentary | 种族 | 犯罪 | 美国电影 | 独立电影

◎简  介

  《强岛》(Strong Island) 导演:扬斯·福特(Yance Ford) 入围2017年圣丹斯电影节纪录片单元

◎获奖情况

  第90届奥斯卡金像奖(2018)
  最佳纪录长片(提名) 恩斯·福特 / 乔斯琳·巴尼斯

  第67届柏林国际电影节(2017)
  泰迪熊奖 最佳纪录片(提名) 恩斯·福特

  第33届圣丹斯电影节(2017)
  评审团大奖 纪录片(提名) 恩斯·福特
  评审团特别奖 纪录片 恩斯·福特

  第27届哥谭独立电影奖(2017)
  最佳纪录片
Video
ID : 1
Format : AVC
Format/Info : Advanced Video Codec
Format profile : [email protected]
Format settings : CABAC / 3 Ref Frames
Format settings, CABAC : Yes
Format settings, Reference frames : 3 frames
Codec ID : V_MPEG4/ISO/AVC
Duration : 1 h 47 min
Bit rate mode : Variable
Bit rate : 4 640 kb/s
Maximum bit rate : 6 960 kb/s
Width : 1 920 pixels
Height : 1 080 pixels
Display aspect ratio : 16:9
Frame rate mode : Constant
Frame rate : 23.976 (24000/1001) FPS
Color space : YUV
Chroma subsampling : 4:2:0
Bit depth : 8 bits
Scan type : Progressive
Bits/(Pixel*Frame) : 0.093
Stream size : 3.41 GiB (92%)
Writing library : x264 core 148
Encoding settings : cabac=1 / ref=3 / deblock=1:0:0 / analyse=0x1:0x111 / me=umh / subme=10 / psy=1 / psy_rd=1.00:0.00 / mixed_ref=1 / me_range=24 / chroma_me=1 / trellis=2 / 8x8dct=0 / cqm=0 / deadzone=21,11 / fast_pskip=1 / chroma_qp_offset=-2 / threads=8 / lookahead_threads=1 / sliced_threads=0 / nr=0 / decimate=1 / interlaced=0 / bluray_compat=0 / stitchable=1 / constrained_intra=0 / bframes=2 / b_pyramid=0 / b_adapt=2 / b_bias=0 / direct=3 / weightb=1 / open_gop=0 / weightp=2 / keyint=48 / keyint_min=25 / scenecut=0 / intra_refresh=0 / rc_lookahead=48 / rc=2pass / mbtree=1 / bitrate=4640 / ratetol=1.0 / qcomp=0.50 / qpmin=6 / qpmax=51 / qpstep=4 / cplxblur=20.0 / qblur=0.5 / vbv_maxrate=6960 / vbv_bufsize=9280 / nal_hrd=vbr / filler=0 / ip_ratio=1.40 / aq=1:1.00
Default : Yes
Forced : No

Audio
ID : 2
Format : AC-3
Format/Info : Audio Coding 3
Commercial name : Dolby Digital
Codec ID : A_AC3
Duration : 1 h 47 min
Bit rate mode : Constant
Bit rate : 384 kb/s
Channel(s) : 6 channels
Channel layout : L R C LFE Ls Rs
Sampling rate : 48.0 kHz
Frame rate : 31.250 FPS (1536 SPF)
Bit depth : 16 bits
Compression mode : Lossy
Stream size : 296 MiB (8%)
Language : English
Service kind : Complete Main
Default : Yes
Forced : No

Text #1
ID : 3
Format : UTF-8
Codec ID : S_TEXT/UTF8
Codec ID/Info : UTF-8 Plain Text
Duration : 1 h 47 min
Bit rate : 97 b/s
Count of elements : 1490
Stream size : 76.6 KiB (0%)
Language : Arabic
Default : No
Forced : No

Text #2
ID : 4
Format : UTF-8
Codec ID : S_TEXT/UTF8
Codec ID/Info : UTF-8 Plain Text
Duration : 1 h 46 min
Bit rate : 147 b/s
Count of elements : 1504
Stream size : 116 KiB (0%)
Language : Bulgarian
Default : No
Forced : No

Text #3
ID : 5
Format : UTF-8
Codec ID : S_TEXT/UTF8
Codec ID/Info : UTF-8 Plain Text
Duration : 1 h 47 min
Bit rate : 72 b/s
Count of elements : 1378
Stream size : 57.4 KiB (0%)
Language : Danish
Default : No
Forced : No

Text #4
ID : 6
Format : UTF-8
Codec ID : S_TEXT/UTF8
Codec ID/Info : UTF-8 Plain Text
Duration : 1 h 45 min
Bit rate : 81 b/s
Count of elements : 1393
Stream size : 62.5 KiB (0%)
Language : German
Default : No
Forced : No

Text #5
ID : 7
Format : UTF-8
Codec ID : S_TEXT/UTF8
Codec ID/Info : UTF-8 Plain Text
Duration : 1 h 47 min
Bit rate : 134 b/s
Count of elements : 1527
Stream size : 106 KiB (0%)
Language : Greek
Default : No
Forced : No

Text #6
ID : 8
Format : UTF-8
Codec ID : S_TEXT/UTF8
Codec ID/Info : UTF-8 Plain Text
Duration : 1 h 47 min
Bit rate : 83 b/s
Count of elements : 1570
Stream size : 65.7 KiB (0%)
Title : SDH
Language : English
Default : No
Forced : No

Text #7
ID : 9
Format : UTF-8
Codec ID : S_TEXT/UTF8
Codec ID/Info : UTF-8 Plain Text
Duration : 1 h 47 min
Bit rate : 72 b/s
Count of elements : 1483
Stream size : 57.4 KiB (0%)
Language : Spanish
Default : No
Forced : No

Text #8
ID : 10
Format : UTF-8
Codec ID : S_TEXT/UTF8
Codec ID/Info : UTF-8 Plain Text
Duration : 1 h 47 min
Bit rate : 75 b/s
Count of elements : 1484
Stream size : 59.7 KiB (0%)
Language : Spanish
Default : No
Forced : No

Text #9
ID : 11
Format : UTF-8
Codec ID : S_TEXT/UTF8
Codec ID/Info : UTF-8 Plain Text
Duration : 1 h 47 min
Bit rate : 70 b/s
Count of elements : 1378
Stream size : 55.8 KiB (0%)
Language : Finnish
Default : No
Forced : No

Text #10
ID : 12
Format : UTF-8
Codec ID : S_TEXT/UTF8
Codec ID/Info : UTF-8 Plain Text
Duration : 1 h 47 min
Bit rate : 74 b/s
Count of elements : 1463
Stream size : 58.4 KiB (0%)
Language : French
Default : No
Forced : No

Text #11
ID : 13
Format : UTF-8
Codec ID : S_TEXT/UTF8
Codec ID/Info : UTF-8 Plain Text
Duration : 1 h 45 min
Bit rate : 94 b/s
Count of elements : 1485
Stream size : 72.7 KiB (0%)
Language : Hebrew
Default : No
Forced : No

Text #12
ID : 14
Format : UTF-8
Codec ID : S_TEXT/UTF8
Codec ID/Info : UTF-8 Plain Text
Duration : 1 h 47 min
Bit rate : 78 b/s
Count of elements : 1475
Stream size : 61.7 KiB (0%)
Language : Italian
Default : No
Forced : No

Text #13
ID : 15
Format : UTF-8
Codec ID : S_TEXT/UTF8
Codec ID/Info : UTF-8 Plain Text
Duration : 1 h 47 min
Bit rate : 65 b/s
Count of elements : 1291
Stream size : 51.4 KiB (0%)
Language : Japanese
Default : No
Forced : No

Text #14
ID : 16
Format : UTF-8
Codec ID : S_TEXT/UTF8
Codec ID/Info : UTF-8 Plain Text
Duration : 1 h 47 min
Bit rate : 81 b/s
Count of elements : 1486
Stream size : 64.0 KiB (0%)
Language : Korean
Default : No
Forced : No

Text #15
ID : 17
Format : UTF-8
Codec ID : S_TEXT/UTF8
Codec ID/Info : UTF-8 Plain Text
Duration : 1 h 47 min
Bit rate : 70 b/s
Count of elements : 1378
Stream size : 55.5 KiB (0%)
Language : Norwegian Bokmal
Default : No
Forced : No

Text #16
ID : 18
Format : UTF-8
Codec ID : S_TEXT/UTF8
Codec ID/Info : UTF-8 Plain Text
Duration : 1 h 47 min
Bit rate : 68 b/s
Count of elements : 1469
Stream size : 53.9 KiB (0%)
Language : Dutch
Default : No
Forced : No

Text #17
ID : 19
Format : UTF-8
Codec ID : S_TEXT/UTF8
Codec ID/Info : UTF-8 Plain Text
Duration : 1 h 47 min
Bit rate : 65 b/s
Count of elements : 1470
Stream size : 51.9 KiB (0%)
Language : Polish
Default : No
Forced : No

Text #18
ID : 20
Format : UTF-8
Codec ID : S_TEXT/UTF8
Codec ID/Info : UTF-8 Plain Text
Duration : 1 h 47 min
Bit rate : 66 b/s
Count of elements : 1482
Stream size : 51.9 KiB (0%)
Language : Portuguese
Default : No
Forced : No

Text #19
ID : 21
Format : UTF-8
Codec ID : S_TEXT/UTF8
Codec ID/Info : UTF-8 Plain Text
Duration : 1 h 45 min
Bit rate : 70 b/s
Count of elements : 1483
Stream size : 54.1 KiB (0%)
Title : Brazilian
Language : Portuguese
Default : No
Forced : No

Text #20
ID : 22
Format : UTF-8
Codec ID : S_TEXT/UTF8
Codec ID/Info : UTF-8 Plain Text
Duration : 1 h 47 min
Bit rate : 76 b/s
Count of elements : 1529
Stream size : 60.2 KiB (0%)
Language : Romanian
Default : No
Forced : No

Text #21
ID : 23
Format : UTF-8
Codec ID : S_TEXT/UTF8
Codec ID/Info : UTF-8 Plain Text
Duration : 1 h 47 min
Bit rate : 73 b/s
Count of elements : 1377
Stream size : 57.4 KiB (0%)
Language : Swedish
Default : No
Forced : No

Text #22
ID : 24
Format : UTF-8
Codec ID : S_TEXT/UTF8
Codec ID/Info : UTF-8 Plain Text
Duration : 1 h 47 min
Bit rate : 166 b/s
Count of elements : 1487
Stream size : 131 KiB (0%)
Language : Thai
Default : No
Forced : No

Text #23
ID : 25
Format : UTF-8
Codec ID : S_TEXT/UTF8
Codec ID/Info : UTF-8 Plain Text
Duration : 1 h 47 min
Bit rate : 76 b/s
Count of elements : 1485
Stream size : 60.3 KiB (0%)
Language : Turkish
Default : No
Forced : No

Text #24
ID : 26
Format : UTF-8
Codec ID : S_TEXT/UTF8
Codec ID/Info : UTF-8 Plain Text
Duration : 1 h 47 min
Bit rate : 60 b/s
Count of elements : 1487
Stream size : 47.5 KiB (0%)
Title : Simplified
Language : Chinese
Default : No
Forced : No

Text #25
ID : 27
Format : UTF-8
Codec ID : S_TEXT/UTF8
Codec ID/Info : UTF-8 Plain Text
Duration : 1 h 47 min
Bit rate : 60 b/s
Count of elements : 1487
Stream size : 47.9 KiB (0%)
Title : Traditional
Language : Chinese
Default : No
Forced : No





1 个附件 售价 大小 下载 时间

Strong.Island.2017.1080p.NF.WEBRip.DD5.1.x264-SiGMA.torrent 0 金币 74.57K 147 次 3天前

#1楼
发帖时间:2019-11-09 05:02:06   |   回复数:1
911degrees
隐世仙人♂
非常感谢,谢谢分享
3天前 #2楼
游客组