conanlcg
超级版主

[更 早] [其他] [喜剧] [BD-1080P] 美丽但贫穷 Belle.Ma.Povere.1957.ITALIAN.1080p.BluRay.x264-HANDJOB 8.11GB

-->

帖子完整标题:美丽但贫穷 Belle.Ma.Povere.1957.ITALIAN.1080p.BluRay.x264-HANDJOB 8.11GB




◎译  名 美丽但贫穷 / Poor Girl, Pretty Girl / Pretty But Poor / 贫穷的美女
◎片  名 Belle ma povere
◎年  代 1957
◎产  地 意大利
◎类  别 喜剧
◎语  言 意大利语
◎上映日期 1957
◎IMDb评分 6.4/10 from 164 users
◎IMDb链接 https://www.imdb.com/title/tt0050181
◎豆瓣评分 0/10 from 0 users
◎豆瓣链接 https://movie.douban.com/subject/5061177/
◎片  长 Germany: 99 分钟
◎导  演 迪诺·里西 Dino Risi
◎编  剧 Pasquale Festa Campanile
◎主  演 玛丽莎·奥拉西欧 Marisa Allasio
      毛里齐奥·阿雷纳 Maurizio Arena
      雷纳托·萨尔瓦托雷 Renato Salvatori
      洛雷拉·德卢卡 Lorella De Luca
      亚历山德拉·帕纳罗 Alessandra Panaro
      里卡尔多·加罗内 Riccardo Garrone


◎标  签 意大利电影 | 爱情 | 意大利 | 喜剧 | BDISO | 1957

◎简  介

  暂无相关剧情介绍
Video
ID : 1
Format : AVC
Format/Info : Advanced Video Codec
Format profile : [email protected]
Format settings : CABAC / 5 Ref Frames
Format settings, CABAC : Yes
Format settings, Reference frames : 5 frames
Codec ID : V_MPEG4/ISO/AVC
Duration : 1 h 38 min
Bit rate : 11.5 Mb/s
Width : 1 480 pixels
Height : 1 080 pixels
Display aspect ratio : 1.370
Frame rate mode : Constant
Frame rate : 24.000 FPS
Color space : YUV
Chroma subsampling : 4:2:0
Bit depth : 8 bits
Scan type : Progressive
Bits/(Pixel*Frame) : 0.299
Stream size : 7.92 GiB (98%)
Writing library : x264 core 157 r2935 545de2f
Encoding settings : cabac=1 / ref=5 / deblock=1:-3:-3 / analyse=0x3:0x133 / me=umh / subme=10 / psy=1 / psy_rd=1.00:0.00 / mixed_ref=1 / me_range=32 / chroma_me=1 / trellis=2 / 8x8dct=1 / cqm=0 / deadzone=21,11 / fast_pskip=0 / chroma_qp_offset=-2 / threads=18 / lookahead_threads=4 / sliced_threads=0 / nr=0 / decimate=0 / interlaced=0 / bluray_compat=0 / constrained_intra=0 / bframes=16 / b_pyramid=2 / b_adapt=2 / b_bias=0 / direct=3 / weightb=1 / open_gop=0 / weightp=2 / keyint=240 / keyint_min=24 / scenecut=40 / intra_refresh=0 / rc_lookahead=60 / rc=crf / mbtree=0 / crf=19.5 / qcomp=0.60 / qpmin=0 / qpmax=69 / qpstep=4 / vbv_maxrate=62500 / vbv_bufsize=78125 / crf_max=0.0 / nal_hrd=none / filler=0 / ip_ratio=1.40 / pb_ratio=1.30 / aq=2:1.00
Default : Yes
Forced : No
Color range : Limited
Color primaries : BT.709
Transfer characteristics : BT.709
Matrix coefficients : BT.709

Audio
ID : 2
Format : FLAC
Format/Info : Free Lossless Audio Codec
Codec ID : A_FLAC
Duration : 1 h 38 min
Bit rate mode : Variable
Bit rate : 238 kb/s
Channel(s) : 2 channels
Channel layout : L R
Sampling rate : 48.0 kHz
Frame rate : 11.719 FPS (4096 SPF)
Bit depth : 16 bits
Compression mode : Lossless
Stream size : 168 MiB (2%)
Writing library : libFLAC 1.2.1 (UTC 2007-09-17)
Language : Italian
Default : Yes
Forced : No

Text #1
ID : 3
Format : UTF-8
Codec ID : S_TEXT/UTF8
Codec ID/Info : UTF-8 Plain Text
Duration : 1 h 38 min
Bit rate : 86 b/s
Count of elements : 2023
Stream size : 62.4 KiB (0%)
Language : English
Default : Yes
Forced : No

Text #2
ID : 4
Format : PGS
Muxing mode : zlib
Codec ID : S_HDMV/PGS
Codec ID/Info : Picture based subtitle format used on BDs/HD-DVDs
Duration : 1 h 38 min
Bit rate : 42.2 kb/s
Count of elements : 3720
Stream size : 29.7 MiB (0%)
Language : French
Default : No
Forced : No

Text #3
ID : 5
Format : PGS
Muxing mode : zlib
Codec ID : S_HDMV/PGS
Codec ID/Info : Picture based subtitle format used on BDs/HD-DVDs
Duration : 1 h 38 min
Bit rate : 42.6 kb/s
Count of elements : 3644
Stream size : 30.1 MiB (0%)
Language : French
Default : No
Forced : No





1 个附件 售价 大小 下载 时间

Belle.Ma.Povere.1957.ITALIAN.1080p.BluRay.x264-HANDJOB.torrent 0 金币 41.09K 203 次 11天前

#1楼
发帖时间:2019-11-09 04:20:56   |   回复数:1
911degrees
隐世仙人♂
非常感谢,谢谢分享
11天前 #2楼
游客组