conanlcg
超级版主

[2008] [其他] [惊悚] [BD-1080P] 荒野恶林 Manhunt.2008.1080p.BluRay.x264-CULTHD 6.56GB

-->

帖子完整标题:荒野恶林 Manhunt.2008.1080p.BluRay.x264-CULTHD 6.56GB




◎译  名 荒野恶林
◎片  名 Rovdyr
◎年  代 2008
◎产  地 挪威
◎类  别 惊悚 / 恐怖
◎语  言 挪威语
◎上映日期 2008-01-04
◎IMDb评分 5.1/10 from 3802 users
◎IMDb链接 http://www.imdb.com/title/tt1054115
◎豆瓣评分 4.7/10 from 555 users
◎豆瓣链接 https://movie.douban.com/subject/2285485/
◎片  长 Argentina: 78 分钟
◎导  演 Patrik Syversen
◎编  剧 Nini Bull Robsahm / Patrik Syversen
◎主  演 Kristina Leganger Aaserud
      Janne Beate B?nes
      Henriette Bruusgaard


◎标  签 恐怖 | 挪威 | 惊悚 | 我看过的恐怖电影 | 荒野恶林 | 2008 | 我看过的外语电影 | 我看过的电影

◎简  介

  1974年夏天。四个伙伴计划在森林中以远足和野营的方式度过周末。在一个偏远的卡车集运站里,他们让一个惶恐不安的旅行者上了车。前进了一小段路程之后,这个旅行者强迫大家停车。她显然对某样事物很恐惧。突然,一行人遭到埋伏并失去了意识。当他们在幽深的森林里醒来时,他们所能听见的只是猎号的声音。游戏就此开始了。在噩梦般的震惊中,他们意识到自己已经成了猎物……
Video
ID : 2
Format : AVC
Format/Info : Advanced Video Codec
Format profile : [email protected]
Format settings : CABAC / 5 Ref Frames
Format settings, CABAC : Yes
Format settings, Reference frames : 5 frames
Codec ID : V_MPEG4/ISO/AVC
Duration : 1 h 19 min
Bit rate : 11.2 Mb/s
Width : 1 920 pixels
Height : 816 pixels
Display aspect ratio : 2.35:1
Frame rate mode : Constant
Frame rate : 23.976 FPS
Color space : YUV
Chroma subsampling : 4:2:0
Bit depth : 8 bits
Scan type : Progressive
Bits/(Pixel*Frame) : 0.299
Stream size : 6.07 GiB (93%)
Writing library : x264 core 75 r1251 e553a4c
Encoding settings : cabac=1 / ref=5 / deblock=1:0:0 / analyse=0x3:0x133 / me=umh / subme=7 / psy=1 / psy_rd=1.0:0.0 / mixed_ref=1 / me_range=16 / chroma_me=1 / trellis=1 / 8x8dct=1 / cqm=0 / deadzone=21,11 / chroma_qp_offset=-2 / threads=6 / nr=0 / decimate=1 / mbaff=0 / bframes=3 / b_pyramid=1 / b_adapt=1 / b_bias=0 / direct=1 / wpredb=1 / keyint=250 / keyint_min=25 / scenecut=40 / rc=2pass / mbtree=0 / bitrate=11232 / ratetol=1.0 / qcomp=0.60 / qpmin=10 / qpmax=51 / qpstep=4 / cplxblur=20.0 / qblur=0.5 / ip_ratio=1.40 / pb_ratio=1.30 / aq=1:1.00
Language : Norwegian
Default : Yes
Forced : No

Audio
ID : 1
Format : AC-3
Format/Info : Audio Coding 3
Commercial name : Dolby Digital
Codec ID : A_AC3
Duration : 1 h 19 min
Bit rate mode : Constant
Bit rate : 640 kb/s
Channel(s) : 6 channels
Channel layout : L R C LFE Ls Rs
Sampling rate : 48.0 kHz
Frame rate : 31.250 FPS (1536 SPF)
Bit depth : 16 bits
Compression mode : Lossy
Stream size : 362 MiB (5%)
Language : Norwegian
Service kind : Complete Main
Default : Yes
Forced : No

Text #1
ID : 3
Format : UTF-8
Codec ID : S_TEXT/UTF8
Codec ID/Info : UTF-8 Plain Text
Language : English
Default : Yes
Forced : No

Text #2
ID : 4
Format : UTF-8
Codec ID : S_TEXT/UTF8
Codec ID/Info : UTF-8 Plain Text
Language : Swedish
Default : No
Forced : No

Text #3
ID : 5
Format : UTF-8
Codec ID : S_TEXT/UTF8
Codec ID/Info : UTF-8 Plain Text
Language : Danish
Default : No
Forced : No

Text #4
ID : 6
Format : UTF-8
Codec ID : S_TEXT/UTF8
Codec ID/Info : UTF-8 Plain Text
Language : Norwegian
Default : No
Forced : No

Menu
00:00:00.000 : :00:00:00.000
00:08:07.862 : :00:08:07.862
00:26:51.777 : :00:26:51.777
00:36:16.466 : :00:36:16.466
00:49:30.176 : :00:49:30.176
00:57:56.515 : :00:57:56.515
01:08:54.630 : :01:08:54.630
01:15:13.759 : :01:15:13.759





1 个附件 售价 大小 下载 时间

Manhunt.2008.1080p.BluRay.x264-CULTHD.torrent 0 金币 33.29K 182 次 11天前

#1楼
发帖时间:2019-11-09 04:18:48   |   回复数:1
911degrees
隐世仙人♂
非常感谢,谢谢分享
11天前 #2楼
游客组