conanlcg
超级版主

[2018] [欧美] [剧情] [WEB-1080P] 支离破碎 Pretty.Broken.2018.1080p.AMZN.WEBRip.DDP5.1.x264-GLI 7.25GB

-->

帖子完整标题:支离破碎 Pretty.Broken.2018.1080p.AMZN.WEBRip.DDP5.1.x264-GLI 7.25GB




◎译  名 支离破碎 / Free for All / 美丽终结
◎片  名 Pretty Broken
◎年  代 2018
◎产  地 美国
◎类  别 剧情 / 喜剧
◎语  言 英语
◎上映日期 2018-05-01(美国)
◎IMDb评分 6.4/10 from 594 users
◎IMDb链接 http://www.imdb.com/title/tt3661570
◎豆瓣评分 0/10 from 0 users
◎豆瓣链接 https://movie.douban.com/subject/30479916/
◎片  长 103分钟
◎导  演 Brett Eichenberger
◎编  剧 Jill Remensnyder
◎主  演 Jillian Clare
      泰勒·克里斯托弗 Tyler Christopher
      斯塔西·爱德华兹 Stacy Edwards
      普雷斯顿·贝里 Preston Bailey
      亚当·钱伯斯 Adam Chambers
      皮特·霍尔登 Peter Holden
      Austin Hillebrecht
      Cosondra Sjostrom
      Jesse Lee Keeter
      特德·鲁尼 Ted Rooney
      托德·罗宾森 Todd Robinson
      Craig Michaelson
      Patrick Kwan
      Robert R. Bertrand
      Echo Bull


◎简  介

  Lindsey Lou's father has gone missing on a mountaineering expedition and she's determined to find him, only she's the least qualified for the job.
Video
ID : 1
Format : AVC
Format/Info : Advanced Video Codec
Format profile : [email protected]
Format settings : CABAC / 4 Ref Frames
Format settings, CABAC : Yes
Format settings, Reference frames : 4 frames
Codec ID : V_MPEG4/ISO/AVC
Duration : 1 h 46 min
Bit rate mode : Constant
Bit rate : 9 125 kb/s
Nominal bit rate : 10 000 kb/s
Width : 1 920 pixels
Height : 1 080 pixels
Display aspect ratio : 16:9
Frame rate mode : Constant
Frame rate : 23.976 (24000/1001) FPS
Color space : YUV
Chroma subsampling : 4:2:0
Bit depth : 8 bits
Scan type : Progressive
Bits/(Pixel*Frame) : 0.184
Stream size : 6.78 GiB (93%)
Default : Yes
Forced : No
Color range : Limited
Color primaries : BT.709
Transfer characteristics : BT.709
Matrix coefficients : BT.709

Audio
ID : 2
Format : E-AC-3
Format/Info : Enhanced AC-3
Commercial name : Dolby Digital Plus
Codec ID : A_EAC3
Duration : 1 h 46 min
Bit rate mode : Constant
Bit rate : 640 kb/s
Channel(s) : 6 channels
Channel layout : L R C LFE Ls Rs
Sampling rate : 48.0 kHz
Frame rate : 31.250 FPS (1536 SPF)
Compression mode : Lossy
Stream size : 487 MiB (7%)
Language : English
Service kind : Complete Main
Default : Yes
Forced : No

Text
ID : 3
Format : UTF-8
Codec ID : S_TEXT/UTF8
Codec ID/Info : UTF-8 Plain Text
Duration : 1 h 45 min
Bit rate : 64 b/s
Count of elements : 1704
Stream size : 50.1 KiB (0%)
Title : SDH
Language : English
Default : Yes
Forced : No





1 个附件 售价 大小 下载 时间

Pretty.Broken.2018.1080p.AMZN.WEBRip.DDP5.1.x264-GLI.torrent 0 金币 36.79K 168 次 12天前

#1楼
发帖时间:2019-11-08 19:50:14   |   回复数:1
911degrees
隐世仙人♂
非常感谢,谢谢分享
11天前 #2楼
游客组