conanlcg
超级版主

[更 早] [欧美] [剧情] [BD-1080P] 义胆情深 Sugar.Hill.1993.1080p.BluRay.x264-GUACAMOLE 10.92GB

-->

帖子完整标题:义胆情深 Sugar.Hill.1993.1080p.BluRay.x264-GUACAMOLE 10.92GB




◎译  名 义胆情深
◎片  名 Sugar Hill
◎年  代 1993
◎产  地 美国
◎类  别 剧情 / 惊悚
◎语  言 英语
◎上映日期 1994-02-25
◎IMDb评分 5.9/10 from 3825 users
◎IMDb链接 https://www.imdb.com/title/tt0107079
◎豆瓣评分 0/10 from 0 users
◎豆瓣链接 https://movie.douban.com/subject/1305968/
◎片  长 123 分钟
◎导  演 里昂·艾查索 Leon Ichaso
◎编  剧 Barry Michael Cooper
◎主  演 韦斯利·斯奈普斯 Wesley Snipes
      坎蒂·亚历山大 Khandi Alexander
      德沃恩·尼克森 DeVaughn Nixon


◎标  签 犯罪 | 黑人 | 街头 | 90s | 美国 | 种族

◎简  介

  Hardened, uncomprimising drug dealer Roemello Skuggs decides to quit his scumbag profession so he may start a new life with his girlfriend. However, he soon learns getting out is nowhere near as easy as getting in, as everything gradually builds up to end in tragedy.
Video
ID : 1
Format : AVC
Format/Info : Advanced Video Codec
Format profile : [email protected]
Format settings : CABAC / 4 Ref Frames
Format settings, CABAC : Yes
Format settings, Reference frames : 4 frames
Codec ID : V_MPEG4/ISO/AVC
Duration : 2 h 3 min
Bit rate : 11.1 Mb/s
Width : 1 920 pixels
Height : 1 032 pixels
Display aspect ratio : 1.85:1
Frame rate mode : Constant
Frame rate : 23.976 (24000/1001) FPS
Color space : YUV
Chroma subsampling : 4:2:0
Bit depth : 8 bits
Scan type : Progressive
Bits/(Pixel*Frame) : 0.235
Stream size : 9.61 GiB (88%)
Writing library : x264 core 157 r2969 d4099dd
Encoding settings : cabac=1 / ref=4 / deblock=1:0:0 / analyse=0x3:0x113 / me=umh / subme=8 / psy=1 / psy_rd=1.00:0.00 / mixed_ref=1 / me_range=16 / chroma_me=1 / trellis=2 / 8x8dct=1 / cqm=0 / deadzone=21,11 / fast_pskip=0 / chroma_qp_offset=-2 / threads=24 / lookahead_threads=4 / sliced_threads=0 / nr=0 / decimate=1 / interlaced=0 / bluray_compat=0 / constrained_intra=0 / bframes=3 / b_pyramid=2 / b_adapt=1 / b_bias=0 / direct=1 / weightb=1 / open_gop=0 / weightp=2 / keyint=250 / keyint_min=23 / scenecut=40 / intra_refresh=0 / rc_lookahead=50 / rc=2pass / mbtree=1 / bitrate=11148 / ratetol=1.0 / qcomp=0.60 / qpmin=0 / qpmax=69 / qpstep=4 / cplxblur=20.0 / qblur=0.5 / ip_ratio=1.40 / aq=1:1.00
Default : Yes
Forced : No

Audio
ID : 2
Format : DTS
Format/Info : Digital Theater Systems
Codec ID : A_DTS
Duration : 2 h 3 min
Bit rate mode : Constant
Bit rate : 1 509 kb/s
Channel(s) : 2 channels
Channel layout : L R
Sampling rate : 48.0 kHz
Frame rate : 93.750 FPS (512 SPF)
Bit depth : 24 bits
Compression mode : Lossy
Stream size : 1.30 GiB (12%)
Language : English
Default : Yes
Forced : No

Menu
00:00:00.000 : en:00:00:00.000
00:03:18.740 : en:00:03:18.740
00:07:13.975 : en:00:07:13.975
00:15:51.784 : en:00:15:51.784
00:23:56.226 : en:00:23:56.226
00:36:48.623 : en:00:36:48.623
00:40:57.121 : en:00:40:57.121
00:51:08.148 : en:00:51:08.148
01:02:38.088 : en:01:02:38.088
01:07:55.780 : en:01:07:55.780
01:16:24.205 : en:01:16:24.205
01:29:27.988 : en:01:29:27.988
01:41:10.231 : en:01:41:10.231
01:48:50.733 : en:01:48:50.733
01:56:27.439 : en:01:56:27.439
01:58:23.847 : en:01:58:23.847





1 个附件 售价 大小 下载 时间

Sugar.Hill.1993.1080p.BluRay.x264-GUACAMOLE.torrent 0 金币 55.32K 315 次 1月前

#1楼
发帖时间:2019-10-13 22:35:51   |   回复数:2
yangbo83222179
一代宗师
谢谢楼主分享
1月前 #2楼
911degrees
隐世仙人♂
非常感谢,谢谢分享
1月前 #3楼
游客组