conanlcg
超级版主

[2017] [其他] [剧情] [BD-1080P] 大佛普拉斯 The.Great.Buddha.Plus.2017.CHINESE.1080p.BluRay.x264.DTS-FGT 9.37GB

-->

帖子完整标题:大佛普拉斯 The.Great.Buddha.Plus.2017.CHINESE.1080p.BluRay.x264.DTS-FGT 9.37GB




◎译  名 The Great Buddha+
◎片  名 大佛普拉斯
◎年  代 2017
◎产  地 中国台湾
◎类  别 剧情 / 喜剧 / 犯罪
◎语  言 闽南语 / 汉语普通话
◎上映日期 2017-06-29(台北电影节) / 2017-10-13(中国台湾)
◎IMDb评分 7.6/10 from 2421 users
◎IMDb链接 http://www.imdb.com/title/tt7010412
◎豆瓣评分 8.7/10 from 198151 users
◎豆瓣链接 https://movie.douban.com/subject/27059130/
◎片  长 102分钟
◎导  演 黄信尧 Hsin-yao Huang
◎编  剧 黄信尧 Hsin-yao Huang
◎主  演 庄益增 Yizeng Zhuang
      陈竹昇 Chu-sheng Chen
      戴立忍 Leon Dai
      张少怀 Shao-Huai Chang
      陈以文 Yiwen Chen
      纳豆 Na Dow
      丁国琳 Guolin Ding
      李永丰 Yung-Feng Lee
      朱约信 Yueh-hsin Chu
      雷婕熙 J.C Lei
      林美秀 Mei-shiu Lin
      小亮哥 Peifang Wang
      游安顺 An-shun Yu
      梁赫群 Vincent Liang
      脱线 Bingnan Chen
      郑宇彤 Evelyn Yu-Tong Cheng
      鲁文学 Louis Lu


◎标  签 黑色幽默 | 台湾 | 小人物 | 人性 | 荒诞 | 黑白 | 社会 | 剧情

◎简  介

  菜埔(庄益增 饰)是一家雕塑厂的夜间保安,家中有一位重病的老母亲需要照顾。肚财(陈竹昇 饰)是菜埔唯一的朋友,菜埔经常在值夜班的时候把肚财叫过来和他作伴。一天,两人突发奇想决定看一看菜埔的老板黄启文(戴立忍 饰)的行车记录仪里记录了哪些影像,希望向来风流的老板能够贡献出一些精彩的片段以解两个独身男人内心里的寂寞之苦。
  行车记录仪所记录的影像果然没有让菜埔和肚财失望,但与此同时,两人也发现了黄启文的许多不可告人的秘密。实际上,菜埔和肚财的一举一动皆没有逃过黄启文的眼睛,为了保住自己的地位和名声,他决定采取一些必要的行动。

◎获奖情况

  第54届台北金马影展(2017)
  金马奖 最佳剧情片(提名)
  金马奖 最佳男配角(提名) 戴立忍
  金马奖 最佳改编剧本 黄信尧
  金马奖 最佳新导演 黄信尧
  金马奖 最佳摄影 钟孟宏
  金马奖 最佳美术设计(提名) 赵思豪
  金马奖 最佳原创配乐 林生祥
  金马奖 最佳原创歌曲 林生祥
  金马奖 最佳剪辑(提名) 赖秀雄
  金马奖 最佳音效(提名) 吴书瑶 / 杜笃之

  第37届香港电影金像奖(2018)
  最佳两岸华语电影

  第42届多伦多国际电影节(2017)
  亚洲电影促进联盟奖 黄信尧

  第12届亚洲电影大奖(2018)
  最佳新导演(提名) 黄信尧
  最佳摄影(提名) 钟孟宏
  最佳原创音乐(提名) 林生祥
  最佳音响 吴书瑶 / 杜笃之

  第19届台北电影节(2017)
  台北电影奖 百万首奖
  台北电影奖 最佳剧情长片
  台北电影奖 最佳剪辑奖 赖秀雄
  台北电影奖 最佳音乐奖 林生祥
  台北电影奖 最佳美术设计 赵思豪

  第5届豆瓣电影年度榜单(2018)
  评分最高的华语电影(提名)
  最受关注的非院线电影(提名)
  评分最高的喜剧片(提名)

  第4届豆瓣电影年度榜单(2017)
  年度华语独立佳作(提名)
Video
ID : 1
Format : AVC
Format/Info : Advanced Video Codec
Format profile : [email protected]
Format settings : CABAC / 4 Ref Frames
Format settings, CABAC : Yes
Format settings, Reference frames : 4 frames
Codec ID : V_MPEG4/ISO/AVC
Duration : 1 h 43 min
Bit rate : 11.5 Mb/s
Width : 1 920 pixels
Height : 1 036 pixels
Display aspect ratio : 1.85:1
Frame rate mode : Constant
Frame rate : 24.000 FPS
Color space : YUV
Chroma subsampling : 4:2:0
Bit depth : 8 bits
Scan type : Progressive
Bits/(Pixel*Frame) : 0.241
Stream size : 8.28 GiB (88%)
Title : The.Great.Buddha.Plus.2017.CHINESE.1080p.BluRay.x264.DTS-FGT
Writing library : x264 core 148 r2795M aaa9aa8
Encoding settings : cabac=1 / ref=4 / deblock=1:-2:-2 / analyse=0x3:0x113 / me=umh / subme=9 / psy=1 / psy_rd=1.00:0.15 / mixed_ref=1 / me_range=16 / chroma_me=1 / trellis=2 / 8x8dct=1 / cqm=0 / deadzone=21,11 / fast_pskip=1 / chroma_qp_offset=-3 / threads=24 / lookahead_threads=3 / sliced_threads=0 / nr=0 / decimate=1 / interlaced=0 / bluray_compat=0 / constrained_intra=0 / bframes=3 / b_pyramid=2 / b_adapt=1 / b_bias=0 / direct=3 / weightb=1 / open_gop=0 / weightp=2 / keyint=250 / keyint_min=25 / scenecut=40 / intra_refresh=0 / rc_lookahead=50 / rc=2pass / mbtree=1 / bitrate=11500 / ratetol=1.0 / qcomp=0.60 / qpmin=0 / qpmax=69 / qpstep=4 / cplxblur=20.0 / qblur=0.5 / vbv_maxrate=31250 / vbv_bufsize=31250 / nal_hrd=none / filler=0 / ip_ratio=1.40 / aq=1:1.00
Language : Chinese
Default : Yes
Forced : No

Audio
ID : 2
Format : DTS
Format/Info : Digital Theater Systems
Codec ID : A_DTS
Duration : 1 h 43 min
Bit rate mode : Constant
Bit rate : 1 509 kb/s
Channel(s) : 6 channels
Channel layout : C L R Ls Rs LFE
Sampling rate : 48.0 kHz
Frame rate : 93.750 FPS (512 SPF)
Bit depth : 16 bits
Compression mode : Lossy
Stream size : 1.09 GiB (12%)
Title : The.Great.Buddha.Plus.2017.CHINESE.1080p.BluRay.x264.DTS-FGT
Language : Chinese
Default : No
Forced : No

Text
ID : 3
Format : UTF-8
Codec ID : S_TEXT/UTF8
Codec ID/Info : UTF-8 Plain Text
Duration : 1 h 34 min
Bit rate : 56 b/s
Count of elements : 1606
Stream size : 39.3 KiB (0%)
Language : English
Default : Yes
Forced : No

Menu
00:00:00.000 : en:Chapter 01
00:14:25.958 : en:Chapter 02
00:25:58.166 : en:Chapter 03
00:38:31.458 : en:Chapter 04
00:50:44.833 : en:Chapter 05
00:56:48.333 : en:Chapter 06
01:05:01.375 : en:Chapter 07
01:12:41.625 : en:Chapter 08
01:17:56.291 : en:Chapter 09
01:22:56.750 : en:Chapter 10
01:29:54.458 : en:Chapter 11
01:35:37.125 : en:Chapter 12





1 个附件 售价 大小 下载 时间

The.Great.Buddha.Plus.2017.CHINESE.1080p.BluRay.x264.DTS-FGT.torrent 0 金币 47.42K 1106 次 8天前

#1楼
发帖时间:2019-10-10 03:34:56   |   回复数:4
tanchoohoon
武林盟主
感谢楼主的无私分享
7天前 #2楼
igefcufppt
武林高手
谢谢楼主分享好片
7天前 #3楼
911degrees
隐世仙人♂
非常感谢,谢谢分享
3天前 #4楼
BoatJ
小有名气
谢谢分享,很现实的电影。
16小时前 #5楼
游客组