conanlcg
超级版主

[更 早] [其他] [剧情] [BD-1080P] 豪客 Shanghai.Lil.1973.CHINESE.1080p.BluRay.x264.DTS-FGT 7.68GB

-->

帖子完整标题:豪客 Shanghai.Lil.1973.CHINESE.1080p.BluRay.x264.DTS-FGT 7.68GB




◎译  名 The Champion
◎片  名 豪客
◎年  代 1973
◎产  地 中国香港
◎类  别 剧情 / 动作
◎语  言 汉语普通话
◎上映日期 1973-01-12
◎IMDb评分 5.7/10 from 19 users
◎IMDb链接 http://www.imdb.com/title/tt0200120
◎豆瓣评分 0/10 from 0 users
◎豆瓣链接 https://movie.douban.com/subject/4324453/
◎片  长 USA: 90 分钟
◎导  演 诸葛青云 / 杨静尘
◎编  剧 杨静尘
◎主  演 金汉
      施思
      易原


◎标  签 香港 | 邵氏 | 动作 | 香港电影 | 诸葛青云 | 杨静尘 | 1973 | 金汉

◎简  介

  暂无相关剧情介绍
Video
ID : 1
Format : AVC
Format/Info : Advanced Video Codec
Format profile : [email protected]
Format settings : CABAC / 4 Ref Frames
Format settings, CABAC : Yes
Format settings, Reference frames : 4 frames
Codec ID : V_MPEG4/ISO/AVC
Duration : 1 h 29 min
Bit rate : 11.5 Mb/s
Width : 1 920 pixels
Height : 808 pixels
Display aspect ratio : 2.40:1
Frame rate mode : Constant
Frame rate : 24.000 FPS
Color space : YUV
Chroma subsampling : 4:2:0
Bit depth : 8 bits
Scan type : Progressive
Bits/(Pixel*Frame) : 0.309
Stream size : 7.20 GiB (94%)
Title : Shanghai.Lil.1973.CHINESE.1080p.BluRay.x264.DTS-FGT
Writing library : x264 core 148 r2795M aaa9aa8
Encoding settings : cabac=1 / ref=4 / deblock=1:-2:-2 / analyse=0x3:0x113 / me=umh / subme=9 / psy=1 / psy_rd=1.00:0.15 / mixed_ref=1 / me_range=16 / chroma_me=1 / trellis=2 / 8x8dct=1 / cqm=0 / deadzone=21,11 / fast_pskip=1 / chroma_qp_offset=-3 / threads=24 / lookahead_threads=3 / sliced_threads=0 / nr=0 / decimate=1 / interlaced=0 / bluray_compat=0 / constrained_intra=0 / bframes=3 / b_pyramid=2 / b_adapt=1 / b_bias=0 / direct=3 / weightb=1 / open_gop=0 / weightp=2 / keyint=250 / keyint_min=25 / scenecut=40 / intra_refresh=0 / rc_lookahead=50 / rc=2pass / mbtree=1 / bitrate=11500 / ratetol=1.0 / qcomp=0.60 / qpmin=0 / qpmax=69 / qpstep=4 / cplxblur=20.0 / qblur=0.5 / vbv_maxrate=31250 / vbv_bufsize=31250 / nal_hrd=none / filler=0 / ip_ratio=1.40 / aq=1:1.00
Language : Chinese
Default : Yes
Forced : No

Audio
ID : 2
Format : DTS
Format/Info : Digital Theater Systems
Codec ID : A_DTS
Duration : 1 h 29 min
Bit rate mode : Constant
Bit rate : 768 kb/s
Channel(s) : 2 channels
Channel layout : L R
Sampling rate : 48.0 kHz
Frame rate : 93.750 FPS (512 SPF)
Bit depth : 16 bits
Compression mode : Lossy
Stream size : 492 MiB (6%)
Title : Shanghai.Lil.1973.CHINESE.1080p.BluRay.x264.DTS-FGT
Language : Chinese
Default : Yes
Forced : No

Text
ID : 3
Format : UTF-8
Codec ID : S_TEXT/UTF8
Codec ID/Info : UTF-8 Plain Text
Duration : 1 h 22 min
Bit rate : 18 b/s
Count of elements : 550
Stream size : 11.1 KiB (0%)
Language : English
Default : Yes
Forced : No

Menu
00:00:00.000 : en:Chapter 01
00:07:57.250 : en:Chapter 02
00:15:16.500 : en:Chapter 03
00:22:50.541 : en:Chapter 04
00:32:02.125 : en:Chapter 05
00:40:23.458 : en:Chapter 06
00:49:36.750 : en:Chapter 07
00:56:10.000 : en:Chapter 08
01:02:59.250 : en:Chapter 09
01:11:26.916 : en:Chapter 10
01:16:28.125 : en:Chapter 11
01:23:02.333 : en:Chapter 12





1 个附件 售价 大小 下载 时间

Shanghai.Lil.1973.CHINESE.1080p.BluRay.x264.DTS-FGT.torrent 0 金币 38.92K 560 次 8天前

#1楼
发帖时间:2019-10-10 03:22:55   |   回复数:2
tanchoohoon
武林盟主
感谢楼主的无私分享
7天前 #2楼
911degrees
隐世仙人♂
非常感谢,谢谢分享
3天前 #3楼
游客组