conanlcg
超级版主

[2015] [其他] [其他] [WEB-720P] 美好生活 La.Buena.Vida.2015.SPANISH.720p.AMZN.WEBRip.DDP2.0.x264-TEPES 3.52GB

-->

帖子完整标题:美好生活 La.Buena.Vida.2015.SPANISH.720p.AMZN.WEBRip.DDP2.0.x264-TEPES 3.52GB




◎译  名 美好生活 / Das gute Leben
◎片  名 La Buena Vida
◎年  代 2015
◎产  地 德国 / Switzerland / 哥伦比亚 Colombia / 荷兰 Netherlands
◎类  别 纪录片
◎语  言 西班牙语
◎上映日期 2015-03-15(哥伦比亚) / 2015-04-22(Switzerland) / 2015-05-14(德国)
◎IMDb链接 http://www.imdb.com/title/tt4249710/
◎豆瓣评分 0/10 from 0 users
◎豆瓣链接 https://movie.douban.com/subject/27621642/
◎片  长 97分钟
◎导  演 Jens Schanze
◎编  剧 Jens Schanze

◎简  介

  Jairo Fuentes is the young leader of the community of Tamaquito, a village in the forests of northern Colombia. Here, nature provides the people with everything they need to survive. For centuries, they've hunted in the mountains, foraged for fruit and reared hens, sheep and cattle. But the Wayúu community's way of life is being destroyed by the El Cerrejón coal mine. This vast chasm extends for 700 square kilometers, making it the world's largest open-cast coal mine. Every day, the pit gets deeper, gnawing away at the previously unspoilt landscape. The coal is exported all over the world. In Germany, the United Kingdom and Israel, in the Netherlands, Turkey, Japan and the USA, coal from El Cerrejón feeds the power stations which generate the electricity to keep our lives fast-paced, bright and warm. Determined to save his community from the forced displacement which has already swept away other villages, Jairo Fuentes sets out to negotiate with the mine's operators. They're backed by powerful commodity companies such as Glencore, Anglo American and BHP Billiton, and communicating with their representatives isn't easy. The companies promise the villagers the blessings of progress, but the Wayúu place no value on modern, electrified houses - on the so-called "better life". Instead, they embark on a fight to save their life in the forest, which soon becomes a fight to survive.
Video
ID : 1
Format : AVC
Format/Info : Advanced Video Codec
Format profile : [email protected]
Format settings : CABAC / 4 Ref Frames
Format settings, CABAC : Yes
Format settings, Reference frames : 4 frames
Codec ID : V_MPEG4/ISO/AVC
Duration : 1 h 33 min
Bit rate mode : Constant
Bit rate : 5 151 kb/s
Nominal bit rate : 6 000 kb/s
Width : 1 280 pixels
Height : 720 pixels
Display aspect ratio : 16:9
Frame rate mode : Constant
Frame rate : 25.000 FPS
Color space : YUV
Chroma subsampling : 4:2:0
Bit depth : 8 bits
Scan type : Progressive
Bits/(Pixel*Frame) : 0.224
Stream size : 3.37 GiB (96%)
Default : Yes
Forced : No
Color range : Limited
Color primaries : BT.709
Transfer characteristics : BT.709
Matrix coefficients : BT.709

Audio
ID : 2
Format : E-AC-3
Format/Info : Enhanced AC-3
Commercial name : Dolby Digital Plus
Codec ID : A_EAC3
Duration : 1 h 33 min
Bit rate mode : Constant
Bit rate : 224 kb/s
Channel(s) : 2 channels
Channel layout : L R
Sampling rate : 48.0 kHz
Frame rate : 31.250 FPS (1536 SPF)
Compression mode : Lossy
Stream size : 150 MiB (4%)
Language : Spanish
Service kind : Complete Main
Default : Yes
Forced : No

Text
ID : 3
Format : UTF-8
Codec ID : S_TEXT/UTF8
Codec ID/Info : UTF-8 Plain Text
Duration : 1 h 26 min
Bit rate : 31 b/s
Count of elements : 546
Stream size : 20.2 KiB (0%)
Title : SDH
Language : English
Default : No
Forced : No





1 个附件 售价 大小 下载 时间

La.Buena.Vida.2015.SPANISH.720p.AMZN.WEBRip.DDP2.0.x264-TEPES.torrent 0 金币 35.69K 105 次 8天前

#1楼
发帖时间:2019-10-10 02:12:06   |   回复数:1
911degrees
隐世仙人♂
非常感谢,谢谢分享
3天前 #2楼
游客组