conanlcg
超级版主

[更 早] [欧美] [其他] [BD-1080P] 吓破胆/阴魂不散 Tourist.Trap.1979.DC.1080p.BluRay.x264.DD2.0-FGT 7.38GB

-->

帖子完整标题:吓破胆/阴魂不散 Tourist.Trap.1979.DC.1080p.BluRay.x264.DD2.0-FGT 7.38GB




◎译  名 吓破胆 / 阴魂不散
◎片  名 Tourist Trap
◎年  代 1979
◎产  地 美国
◎类  别 悬疑 / 惊悚 / 恐怖
◎语  言 英语
◎上映日期 1979-03-16
◎IMDb评分 6.2/10 from 7078 users
◎IMDb链接 http://www.imdb.com/title/tt0080040
◎豆瓣评分 6.7/10 from 530 users
◎豆瓣链接 https://movie.douban.com/subject/1305075/
◎片  长 90 分钟
◎导  演 David Schmoeller
◎编  剧 David Schmoeller / J. Larry Carroll
◎主  演 查克·康诺斯 Chuck Connors
      Jocelyn Jones
      Jon Van Ness
      Robin Sherwood
      Tanya Roberts
      Dawn Jeffory
      Keith McDermott
      Shailar Coby
      Arlecchino
      Victoria Richart
      Millie Dill


◎标  签 恐怖 | 美国 | 惊悚 | Cult | 1979 | 悬疑 | 美国电影 | 1970s

◎简  介

  几个年轻人驾车到郊外出游,偶然的来到了一个老男人悉心经营的世外桃源。在鸟语花香池塘戏水的欢乐玩耍和老男人的热心招待背后,逐个消失的同伴让年轻人心神不安……俊男美女的命运会走向何处呢?
Video
ID : 1
Format : AVC
Format/Info : Advanced Video Codec
Format profile : [email protected]
Format settings : CABAC / 4 Ref Frames
Format settings, CABAC : Yes
Format settings, Reference frames : 4 frames
Codec ID : V_MPEG4/ISO/AVC
Duration : 1 h 29 min
Bit rate : 11.5 Mb/s
Width : 1 920 pixels
Height : 1 080 pixels
Display aspect ratio : 16:9
Frame rate mode : Constant
Frame rate : 23.976 (24000/1001) FPS
Color space : YUV
Chroma subsampling : 4:2:0
Bit depth : 8 bits
Scan type : Progressive
Bits/(Pixel*Frame) : 0.231
Stream size : 7.21 GiB (98%)
Title : Tourist.Trap.1979.DC.1080p.BluRay.x264.DD2.0-FGT
Writing library : x264 core 148 r2795M aaa9aa8
Encoding settings : cabac=1 / ref=4 / deblock=1:-2:-2 / analyse=0x3:0x113 / me=umh / subme=9 / psy=1 / psy_rd=1.00:0.15 / mixed_ref=1 / me_range=16 / chroma_me=1 / trellis=2 / 8x8dct=1 / cqm=0 / deadzone=21,11 / fast_pskip=1 / chroma_qp_offset=-3 / threads=24 / lookahead_threads=3 / sliced_threads=0 / nr=0 / decimate=1 / interlaced=0 / bluray_compat=0 / constrained_intra=0 / bframes=3 / b_pyramid=2 / b_adapt=1 / b_bias=0 / direct=3 / weightb=1 / open_gop=0 / weightp=2 / keyint=250 / keyint_min=25 / scenecut=40 / intra_refresh=0 / rc_lookahead=50 / rc=2pass / mbtree=1 / bitrate=11500 / ratetol=1.0 / qcomp=0.60 / qpmin=0 / qpmax=69 / qpstep=4 / cplxblur=20.0 / qblur=0.5 / vbv_maxrate=31250 / vbv_bufsize=31250 / nal_hrd=none / filler=0 / ip_ratio=1.40 / aq=1:1.00
Language : English
Default : Yes
Forced : No

Audio
ID : 2
Format : AC-3
Format/Info : Audio Coding 3
Commercial name : Dolby Digital
Codec ID : A_AC3
Duration : 1 h 29 min
Bit rate mode : Constant
Bit rate : 256 kb/s
Channel(s) : 2 channels
Channel layout : L R
Sampling rate : 48.0 kHz
Frame rate : 31.250 FPS (1536 SPF)
Bit depth : 16 bits
Compression mode : Lossy
Stream size : 164 MiB (2%)
Title : Tourist.Trap.1979.DC.1080p.BluRay.x264.DD2.0-FGT
Language : English
Service kind : Complete Main
Default : Yes
Forced : No

Menu
00:00:00.000 : en:The Breakdown
00:10:08.399 : en:Closed to the Public
00:19:47.853 : en:The Phone Doesn\'t Work
00:30:15.564 : en:Stunning Similarity
00:44:02.722 : en:Die of Fright
00:58:35.762 : en:He\'s There
01:11:07.512 : en:Awakening of the Dolls
01:22:05.628 : en:Join the Others
01:28:06.238 : en:End Credits





1 个附件 售价 大小 下载 时间

Tourist.Trap.1979.DC.1080p.BluRay.x264.DD2.0-FGT.torrent 0 金币 37.41K 476 次 8天前

#1楼
发帖时间:2019-10-10 00:29:50   |   回复数:1
911degrees
隐世仙人♂
非常感谢,谢谢分享
3天前 #2楼
游客组