conanlcg
超级版主

[更 早] [欧美] [动作] [BD-4K] 星球大战3:绝地归来/星球大战第六集:武士复仇 Star.Wars.Episode.VI.Return.of.the.Jedi.1983.2160p.CUSTO

-->

帖子完整标题:星球大战3:绝地归来/星球大战第六集:武士复仇 Star.Wars.Episode.VI.Return.of.the.Jedi.1983.2160p.CUSTOM.DCPRIP.SDR.x265.DTS-HD.MA.5.1-4k83v1.3 61.07GB




◎译  名 星球大战3:绝地归来 / 星球大战第六集:武士复仇 / 星际大战六部曲:绝地大反攻 / 杰迪归来 / 绝地大反击
◎片  名 Star Wars: Episode VI - Return of the Jedi
◎年  代 1983
◎产  地 美国
◎类  别 动作 / 科幻 / 冒险
◎语  言 英语
◎上映日期 1983-05-25(美国)
◎IMDb评分 8.3/10 from 858604 users
◎IMDb链接 http://www.imdb.com/title/tt0086190
◎豆瓣评分 8.3/10 from 58158 users
◎豆瓣链接 https://movie.douban.com/subject/1297151/
◎片  长 131分钟
◎导  演 Richard Marquand
◎编  剧 George Lucas / Lawrence Kasdan
◎主  演 Mark Hamill
      Harrison Ford
      Anthony Daniels
      Carrie Fisher
      Billy Dee Williams
      Peter Mayhew
      Ian McDiarmid
      Frank Oz
      Alec Guinness


◎标  签 科幻 | 星球大战 | 美国 | 经典 | 1983 | 动作 | 冒险 | 战争

◎简  介

  银河帝国再建威力更大的新“死星”,试图彻底消灭抵抗力量。卢克?天行者(马克?哈米尔 Mark Hamill 饰)派机器人R2-D2和C-3PO前往塔图因星贾霸处协商交换被冷冻的韩?索罗(哈里森?福特饰)未果;后在莉亚公主(卡里?费什尔 Carrie Fisher 饰),猿人丘巴卡(彼得?梅林 Peter Mayhew 饰)和蓝多?卡瑞辛(比利?迪?威廉姆斯 Billy Dee Williams 饰)的帮助下终于营救成功。在尤达师傅处,卢克发现了更多关于自己身世的秘密,也终于决定迎接成为一个绝地武士的终极挑战。卢克回到抵抗组织参与攻打“死星”行动,与韩?索罗,莉亚公主,丘巴卡,机器人R2-D2和C-3PO共同前往森林密布的恩多星破坏“死星”防护罩的能源站,与此同时蓝多?卡瑞辛驾驶千年隼飞船带领各部施展航空打击。没曾想卢克一行人刚踏上恩多星,就遭遇当地部落伊沃克人,莉亚公主也不知所踪……
本片获第56界奥斯卡视觉效果特殊贡献奖,并获最佳艺术指导-布景,最佳声音剪辑,最佳原创电影音乐及最佳音效四项提名。

◎获奖情况

  第56届奥斯卡金像奖(1984)
  最佳音效剪辑(提名) 本·贝尔特
  最佳音响(提名) 兰迪·汤姆 / 加里·萨默斯 / Tony Dawe / 本·贝尔特
  最佳艺术指导(提名) 诺曼·雷诺兹 / 迈克尔·福特 / Fred Hole / James L. Schoppe
  最佳原创配乐(提名) 约翰·威廉姆斯
  特别成就奖 肯·拉斯顿 / 丹尼斯·穆伦 / 菲尔 蒂贝特 / 理查德·艾德兰德



Video
ID : 1
Format : HEVC
Format/Info : High Efficiency Video Coding
Format profile : Main [email protected][email protected]
Codec ID : V_MPEGH/ISO/HEVC
Duration : 2 h 12 min
Bit rate : 58.0 Mb/s
Width : 3 840 pixels
Height : 2 160 pixels
Display aspect ratio : 16:9
Frame rate mode : Constant
Frame rate : 23.976 (24000/1001) FPS
Color space : YUV
Chroma subsampling : 4:2:0
Bit depth : 10 bits
Bits/(Pixel*Frame) : 0.292
Stream size : 53.7 GiB (92%)
Title : 1983 35mm Eastman Print
Writing library : x265 2.9:[Mac OS X][clang 10.0.0][64 bit] 10bit
Encoding settings : cpuid=1049583 / frame-threads=4 / wpp / no-pmode / no-pme / no-psnr / no-ssim / log-level=2 / input-csp=1 / input-res=3840x2160 / interlace=0 / total-frames=0 / level-idc=0 / high-tier=1 / uhd-bd=0 / ref=4 / no-allow-non-conformance / no-repeat-headers / annexb / no-aud / no-hrd / info / hash=0 / no-temporal-layers / open-gop / min-keyint=24 / keyint=240 / gop-lookahead=0 / bframes=4 / b-adapt=2 / b-pyramid / bframe-bias=0 / rc-lookahead=25 / lookahead-slices=4 / scenecut=40 / radl=0 / no-intra-refresh / ctu=64 / min-cu-size=8 / rect / no-amp / max-tu-size=32 / tu-inter-depth=1 / tu-intra-depth=1 / limit-tu=0 / rdoq-level=2 / dynamic-rd=0.00 / no-ssim-rd / signhide / no-tskip / nr-intra=0 / nr-inter=0 / no-constrained-intra / strong-intra-smoothing / max-merge=3 / limit-refs=3 / limit-modes / me=3 / subme=4 / merange=57 / temporal-mvp / weightp / no-weightb / no-analyze-src-pics / deblock=0:0 / no-sao / no-sao-non-deblock / rd=4 / no-early-skip / rskip / no-fast-intra / no-tskip-fast / no-cu-lossless / no-b-intra / no-splitrd-skip / rdpenalty=0 / psy-rd=2.00 / psy-rdoq=1.00 / no-rd-refine / no-lossless / cbqpoffs=0 / crqpoffs=0 / rc=abr / bitrate=58000 / qcomp=0.60 / qpstep=4 / stats-write=0 / stats-read=2 / cplxblur=20.0 / qblur=0.5 / ipratio=1.40 / pbratio=1.30 / aq-mode=1 / aq-strength=1.00 / cutree / zone-count=0 / no-strict-cbr / qg-size=32 / no-rc-grain / qpmax=69 / qpmin=0 / no-const-vbv / sar=1 / overscan=0 / videoformat=5 / range=0 / colorprim=1 / transfer=1 / colormatrix=1 / chromaloc=0 / display-window=0 / max-cll=0,0 / min-luma=0 / max-luma=1023 / log2-max-poc-lsb=8 / vui-timing-info / vui-hrd-info / slices=1 / no-opt-qp-pps / no-opt-ref-list-length-pps / no-multi-pass-opt-rps / scenecut-bias=0.05 / no-opt-cu-delta-qp / no-aq-motion / no-hdr / no-hdr-opt / no-dhdr10-opt / no-idr-recovery-sei / analysis-reuse-level=5 / scale-factor=0 / refine-intra=0 / refine-inter=0 / refine-mv=0 / no-limit-sao / ctu-info=0 / no-lowpass-dct / refine-mv-type=0 / copy-pic=1 / max-ausize-factor=1.0 / no-dynamic-refine / no-single-sei
Language : English
Default : Yes
Forced : No
Color range : Limited
Color primaries : BT.709
Transfer characteristics : BT.709
Matrix coefficients : BT.709

Audio #1
ID : 2
Format : DTS XLL
Format/Info : Digital Theater Systems
Commercial name : DTS-HD Master Audio
Codec ID : A_DTS
Duration : 2 h 11 min
Bit rate mode : Variable
Bit rate : 1 757 kb/s
Channel(s) : 2 channels
Sampling rate : 48.0 kHz
Frame rate : 93.750 FPS (512 SPF)
Bit depth : 24 bits
Compression mode : Lossless
Stream size : 1.62 GiB (3%)
Title : 1983 35mm Optical Audio (from this print)
Language : English
Default : Yes
Forced : No

Audio #2
ID : 3
Format : DTS XLL
Format/Info : Digital Theater Systems
Commercial name : DTS-HD Master Audio
Codec ID : A_DTS
Duration : 2 h 11 min
Bit rate mode : Variable
Bit rate : 2 246 kb/s
Channel(s) : 6 channels
Channel layout : C L R Ls Rs LFE
Sampling rate : 48.0 kHz
Frame rate : 93.750 FPS (512 SPF)
Bit depth : 16 bits
Compression mode : Lossless
Stream size : 2.07 GiB (4%)
Title : 5.1 mix 2018 version (new for 4K83)
Language : English
Default : No
Forced : No

Audio #3
ID : 4
Format : AC-3
Format/Info : Audio Coding 3
Commercial name : Dolby Digital
Codec ID : A_AC3
Duration : 2 h 11 min
Bit rate mode : Constant
Bit rate : 192 kb/s
Channel(s) : 1 channel
Channel layout : C
Sampling rate : 48.0 kHz
Frame rate : 31.250 FPS (1536 SPF)
Bit depth : 16 bits
Compression mode : Lossy
Stream size : 181 MiB (0%)
Title : Mono mix 2018 version (new for 4K83)
Language : English
Service kind : Complete Main
Default : No
Forced : No

Audio #4
ID : 5
Format : AC-3
Format/Info : Audio Coding 3
Commercial name : Dolby Digital
Codec ID : A_AC3
Duration : 2 h 11 min
Bit rate mode : Constant
Bit rate : 384 kb/s
Channel(s) : 2 channels
Channel layout : L R
Sampling rate : 48.0 kHz
Frame rate : 31.250 FPS (1536 SPF)
Bit depth : 16 bits
Compression mode : Lossy
Stream size : 362 MiB (1%)
Title : 1983 LaserDisc audio (US CLV P&S: 1478-80)
Language : English
Service kind : Complete Main
Default : No
Forced : No

Audio #5
ID : 6
Format : AC-3
Format/Info : Audio Coding 3
Commercial name : Dolby Digital
Codec ID : A_AC3
Duration : 2 h 11 min
Bit rate mode : Constant
Bit rate : 384 kb/s
Channel(s) : 3 channels
Channel layout : L R C
Sampling rate : 48.0 kHz
Frame rate : 31.250 FPS (1536 SPF)
Bit depth : 16 bits
Compression mode : Lossy
Stream size : 362 MiB (1%)
Title : 1993 LaserDisc audio Commentary (new for 4K83)
Language : English
Service kind : Complete Main
Default : No
Forced : No

Menu
00:00:00.000 : en:Opening Logos
00:00:21.100 : en:Return of the Jedi
00:01:55.360 : en:Vader\'s Unexpected Visit
00:05:01.010 : en:Arrival at Jabba\'s Palace
00:08:11.030 : en:A Message and a Gift
00:12:22.790 : en:The Max Rebo Band
00:13:56.040 : en:The Price for Chewbacca
00:17:07.570 : en:Free from the Carbonite
00:21:41.680 : en:Enter the Jedi
00:24:39.850 : en:\"Oh No! The Rancor!\"
00:29:08.960 : en:On the Sail Barge
00:30:44.920 : en:The Sarlacc Pit
00:36:58.420 : en:The Emperor Arrives
00:38:46.700 : en:Yoda\'s Twilight
00:44:31.710 : en:A Certain Point of View
00:47:37.560 : en:Rebel Briefing
00:50:50.000 : en:Lending the Falcon
00:52:46.290 : en:The Emperor\'s Instructions
00:53:38.840 : en:Flying Casual
00:56:08.990 : en:Arrival on Endor
00:57:57.600 : en:Speeder Bike Chase
01:01:55.330 : en:Leia Meets Wicket
01:05:33.060 : en:Vader\'s Report
01:07:01.310 : en:An Ewok Trap
01:11:14.730 : en:The Golden God
01:15:06.800 : en:Campfire Stories
01:17:28.600 : en:Brother and Sister
01:21:44.860 : en:Luke Surrenders
01:25:20.580 : en:Rebel Recon
01:26:05.790 : en:The Alliance Fleet
01:27:04.850 : en:Back Door
01:29:18.480 : en:Luke and the Emperor
01:32:32.840 : en:\"It\'s a Trap!\"
01:35:55.210 : en:Ewok Attack
01:39:39.030 : en:Fully Operational
01:41:36.990 : en:The Battle Rages
01:43:41.610 : en:The Dark Side Beckons
01:44:40.700 : en:The Ewoks Turn the Tide
01:47:56.200 : en:Father vs. Son
01:49:54.480 : en:Taking the Bunker
01:50:50.870 : en:A Jedi\'s Fury
01:53:50.880 : en:The Shield is Down
01:54:22.250 : en:Force Lightning
01:55:11.300 : en:Vader\'s Redemption
01:56:53.930 : en:Into the Death Star
01:58:48.010 : en:Anakin Unmasked
02:01:12.650 : en:Death Star Destroyed
02:04:04.360 : en:Funeral Pyre
02:04:40.860 : en:Celebration
02:06:28.800 : en:End Credits
02:11:40.000 : en:4K83 End Credits





1 个附件 售价 大小 下载 时间

Star.Wars.Episode.VI.Return.of.the.Jedi.1983.2160p.CUSTOM.DCPRIP.SDR.x265.DTS-HD.MA.5.1-4k83v1.3.torrent 0 金币 158.72K 266 次 11天前

#1楼
发帖时间:2019-09-12 07:54:44   |   回复数:3
911degrees
隐世仙人♂
非常感谢,谢谢分享
10天前 #2楼
liyouchai
隐世仙人♂
谢谢楼主分享资源
10天前 #3楼
jokingcheung
一代宗师
谢谢分享
10天前 #4楼
游客组