conanlcg
超级版主

[2018] [欧美] [惊悚] [BD-Remux] 夜幕猎人 Nomis.2018.1080p.BluRay.REMUX.AVC.DTS-HD.MA.TrueHD.5.1-FGT 25.97GB

-->

帖子完整标题:夜幕猎人 Nomis.2018.1080p.BluRay.REMUX.AVC.DTS-HD.MA.TrueHD.5.1-FGT 25.97GB




◎译  名 夜幕猎人 / Nomis / 诺米斯
◎片  名 Night Hunter
◎年  代 2018
◎产  地 美国
◎类  别 惊悚
◎语  言 英语
◎上映日期 2018-09-28(洛杉矶电影节) / 2019-09-06(美国)
◎IMDb评分 6.1/10 from 802 users
◎IMDb链接 http://www.imdb.com/title/tt6533240
◎豆瓣评分 0/10 from 0 users
◎豆瓣链接 https://movie.douban.com/subject/26972266/
◎片  长 98分钟
◎导  演 大卫·雷蒙德 David Raymond
◎编  剧 大卫·雷蒙德 David Raymond
◎主  演 本·金斯利 Ben Kingsley
      亨利·卡维尔 Henry Cavill
      亚历珊德拉·达达里奥 Alexandra Daddario
      斯坦利·图齐 Stanley Tucci
      内森·菲利安 Nathan Fillion
      敏卡·凯利 Minka Kelly
      布莱登·佛雷切 Brendan Fletcher
      伊莲娜·琼斯 Eliana Jones
      Mpho Koaho
      Kristen Harris
      Lorraine James


◎标  签 亨利·卡维尔 | 犯罪 | 惊悚 | 美国 | HenryCavill | 2018 | 电影 | 亚历珊德拉·达达里奥

◎简  介

  本·金斯利、亨利·卡维尔、亚历珊德拉·达达里奥加盟心理惊悚片[诺米斯](Nomis,暂译)。该片由大卫·雷蒙德自编自导,故事围绕一名美国警察追捕一名网上罪犯展开,随着案件的逐渐深入,一切都朝着无法控制的方向发展。2月底加拿大开机。
Video
ID : 1
Format : AVC
Format/Info : Advanced Video Codec
Format profile : [email protected]
Format settings : CABAC / 4 Ref Frames
Format settings, CABAC : Yes
Format settings, Reference frames : 4 frames
Codec ID : V_MPEG4/ISO/AVC
Duration : 1 h 38 min
Bit rate mode : Variable
Bit rate : 26.1 Mb/s
Maximum bit rate : 35.0 Mb/s
Width : 1 920 pixels
Height : 1 080 pixels
Display aspect ratio : 16:9
Frame rate mode : Constant
Frame rate : 23.976 (24000/1001) FPS
Standard : NTSC
Color space : YUV
Chroma subsampling : 4:2:0
Bit depth : 8 bits
Scan type : Progressive
Bits/(Pixel*Frame) : 0.526
Stream size : 18.1 GiB (70%)
Title : Nomis.2018.1080p.BluRay.REMUX.AVC.DTS-HD.MA.TrueHD.5.1-FGT
Language : English
Default : No
Forced : No
Color range : Limited
Color primaries : BT.709
Transfer characteristics : BT.709
Matrix coefficients : BT.709

Audio #1
ID : 2
Format : MLP FBA
Format/Info : Meridian Lossless Packing FBA
Commercial name : Dolby TrueHD
Codec ID : A_TRUEHD
Duration : 1 h 38 min
Bit rate mode : Variable
Bit rate : 3 191 kb/s
Maximum bit rate : 5 043 kb/s
Channel(s) : 6 channels
Channel layout : L R C LFE Ls Rs
Sampling rate : 48.0 kHz
Frame rate : 1 200.000 FPS (40 SPF)
Compression mode : Lossless
Stream size : 2.21 GiB (8%)
Title : Nomis.2018.1080p.BluRay.REMUX.AVC.DTS-HD.MA.TrueHD.5.1-FGT
Language : English
Default : Yes
Forced : No

Audio #2
ID : 3
Format : DTS XLL
Format/Info : Digital Theater Systems
Commercial name : DTS-HD Master Audio
Codec ID : A_DTS
Duration : 1 h 38 min
Bit rate mode : Variable
Bit rate : 3 624 kb/s
Channel(s) : 6 channels
Channel layout : C L R Ls Rs LFE
Sampling rate : 48.0 kHz
Frame rate : 93.750 FPS (512 SPF)
Bit depth : 24 bits
Compression mode : Lossless
Stream size : 2.51 GiB (10%)
Title : Nomis.2018.1080p.BluRay.REMUX.AVC.DTS-HD.MA.TrueHD.5.1-FGT
Language : English
Default : No
Forced : No

Audio #3
ID : 4
Format : AC-3
Format/Info : Audio Coding 3
Commercial name : Dolby Digital
Codec ID : A_AC3
Duration : 1 h 38 min
Bit rate mode : Constant
Bit rate : 640 kb/s
Channel(s) : 6 channels
Channel layout : L R C LFE Ls Rs
Sampling rate : 48.0 kHz
Frame rate : 31.250 FPS (1536 SPF)
Bit depth : 16 bits
Compression mode : Lossy
Stream size : 453 MiB (2%)
Title : Nomis.2018.1080p.BluRay.REMUX.AVC.DTS-HD.MA.TrueHD.5.1-FGT
Language : English
Service kind : Complete Main
Default : No
Forced : No

Audio #4
ID : 5
Format : MLP FBA
Format/Info : Meridian Lossless Packing FBA
Commercial name : Dolby TrueHD
Codec ID : A_TRUEHD
Duration : 1 h 38 min
Bit rate mode : Variable
Bit rate : 3 181 kb/s
Maximum bit rate : 4 944 kb/s
Channel(s) : 6 channels
Channel layout : L R C LFE Ls Rs
Sampling rate : 48.0 kHz
Frame rate : 1 200.000 FPS (40 SPF)
Compression mode : Lossless
Stream size : 2.20 GiB (8%)
Title : Nomis.2018.1080p.BluRay.REMUX.AVC.DTS-HD.MA.TrueHD.5.1-FGT
Language : French
Default : No
Forced : No

Audio #5
ID : 6
Format : AC-3
Format/Info : Audio Coding 3
Commercial name : Dolby Digital
Codec ID : A_AC3
Duration : 1 h 38 min
Bit rate mode : Constant
Bit rate : 640 kb/s
Channel(s) : 6 channels
Channel layout : L R C LFE Ls Rs
Sampling rate : 48.0 kHz
Frame rate : 31.250 FPS (1536 SPF)
Bit depth : 16 bits
Compression mode : Lossy
Stream size : 453 MiB (2%)
Title : Nomis.2018.1080p.BluRay.REMUX.AVC.DTS-HD.MA.TrueHD.5.1-FGT
Language : French
Service kind : Complete Main
Default : No
Forced : No

Text #1
ID : 7
Format : UTF-8
Codec ID : S_TEXT/UTF8
Codec ID/Info : UTF-8 Plain Text
Duration : 1 h 33 min
Bit rate : 48 b/s
Count of elements : 1279
Stream size : 32.9 KiB (0%)
Title : English-SRT
Language : English
Default : Yes
Forced : No

Text #2
ID : 8
Format : PGS
Muxing mode : zlib
Codec ID : S_HDMV/PGS
Codec ID/Info : Picture based subtitle format used on BDs/HD-DVDs
Duration : 1 h 33 min
Bit rate : 23.5 kb/s
Count of elements : 2596
Stream size : 15.7 MiB (0%)
Title : English-PGS
Language : English
Default : No
Forced : No

Text #3
ID : 9
Format : PGS
Muxing mode : zlib
Codec ID : S_HDMV/PGS
Codec ID/Info : Picture based subtitle format used on BDs/HD-DVDs
Duration : 1 h 38 min
Bit rate : 27.0 kb/s
Count of elements : 2496
Stream size : 18.9 MiB (0%)
Title : French-PGS
Language : French
Default : No
Forced : No

Text #4
ID : 10
Format : PGS
Muxing mode : zlib
Codec ID : S_HDMV/PGS
Codec ID/Info : Picture based subtitle format used on BDs/HD-DVDs
Duration : 1 h 32 min
Bit rate : 243 b/s
Count of elements : 18
Stream size : 165 KiB (0%)
Title : French-FORCED-PGS
Language : French
Default : No
Forced : No

Menu
00:00:00.000 : en:Chapter 01
00:13:20.299 : en:Chapter 02
00:25:10.884 : en:Chapter 03
00:40:01.107 : en:Chapter 04
00:53:13.315 : en:Chapter 05
01:08:14.507 : en:Chapter 06
01:23:00.141 : en:Chapter 07
01:33:35.651 : en:Chapter 08





1 个附件 售价 大小 下载 时间

Nomis.2018.1080p.BluRay.REMUX.AVC.DTS-HD.MA.TrueHD.5.1-FGT.torrent 0 金币 65.48K 630 次 11天前

#1楼
发帖时间:2019-09-12 07:44:37   |   回复数:3
tanchoohoon
武林盟主
感谢楼主的无私分享
10天前 #2楼
911degrees
隐世仙人♂
非常感谢,谢谢分享
10天前 #3楼
liyouchai
隐世仙人♂
谢谢楼主分享资源
10天前 #4楼
游客组