conanlcg
超级版主

[2018] [欧美] [惊悚] [BD-1080P] 夜幕猎人 Nomis.2018.1080p.BluRay.x264.DTS-FGT 6.71GB

-->

帖子完整标题:夜幕猎人 Nomis.2018.1080p.BluRay.x264.DTS-FGT 6.71GB




◎译  名 夜幕猎人 / Nomis / 诺米斯
◎片  名 Night Hunter
◎年  代 2018
◎产  地 美国
◎类  别 惊悚
◎语  言 英语
◎上映日期 2018-09-28(洛杉矶电影节) / 2019-09-06(美国)
◎IMDb评分 6.1/10 from 802 users
◎IMDb链接 http://www.imdb.com/title/tt6533240
◎豆瓣评分 0/10 from 0 users
◎豆瓣链接 https://movie.douban.com/subject/26972266/
◎片  长 98分钟
◎导  演 大卫·雷蒙德 David Raymond
◎编  剧 大卫·雷蒙德 David Raymond
◎主  演 本·金斯利 Ben Kingsley
      亨利·卡维尔 Henry Cavill
      亚历珊德拉·达达里奥 Alexandra Daddario
      斯坦利·图齐 Stanley Tucci
      内森·菲利安 Nathan Fillion
      敏卡·凯利 Minka Kelly
      布莱登·佛雷切 Brendan Fletcher
      伊莲娜·琼斯 Eliana Jones
      Mpho Koaho
      Kristen Harris
      Lorraine James


◎标  签 亨利·卡维尔 | 犯罪 | 惊悚 | 美国 | HenryCavill | 2018 | 电影 | 亚历珊德拉·达达里奥

◎简  介

  本·金斯利、亨利·卡维尔、亚历珊德拉·达达里奥加盟心理惊悚片[诺米斯](Nomis,暂译)。该片由大卫·雷蒙德自编自导,故事围绕一名美国警察追捕一名网上罪犯展开,随着案件的逐渐深入,一切都朝着无法控制的方向发展。2月底加拿大开机。
Video
ID : 1
Format : AVC
Format/Info : Advanced Video Codec
Format profile : [email protected]
Format settings : CABAC / 5 Ref Frames
Format settings, CABAC : Yes
Format settings, Reference frames : 5 frames
Codec ID : V_MPEG4/ISO/AVC
Duration : 1 h 38 min
Bit rate : 8 198 kb/s
Width : 1 920 pixels
Height : 808 pixels
Display aspect ratio : 2.40:1
Frame rate mode : Constant
Frame rate : 23.976 (24000/1001) FPS
Color space : YUV
Chroma subsampling : 4:2:0
Bit depth : 8 bits
Scan type : Progressive
Bits/(Pixel*Frame) : 0.220
Stream size : 5.67 GiB (84%)
Title : Nomis.2018.1080p.BluRay.x264.DTS-FGT
Writing library : x264 core 157 r2969 d4099dd
Encoding settings : cabac=1 / ref=5 / deblock=1:0:0 / analyse=0x3:0x113 / me=umh / subme=8 / psy=1 / psy_rd=1.00:0.00 / mixed_ref=1 / me_range=16 / chroma_me=1 / trellis=2 / 8x8dct=1 / cqm=0 / deadzone=21,11 / fast_pskip=1 / chroma_qp_offset=-2 / threads=16 / lookahead_threads=2 / sliced_threads=0 / nr=0 / decimate=1 / interlaced=0 / bluray_compat=0 / constrained_intra=0 / bframes=3 / b_pyramid=2 / b_adapt=2 / b_bias=0 / direct=3 / weightb=1 / open_gop=0 / weightp=2 / keyint=240 / keyint_min=23 / scenecut=40 / intra_refresh=0 / rc_lookahead=50 / rc=2pass / mbtree=1 / bitrate=8198 / ratetol=1.0 / qcomp=0.60 / qpmin=0 / qpmax=69 / qpstep=4 / cplxblur=20.0 / qblur=0.5 / ip_ratio=1.40 / aq=1:1.00
Language : English
Default : Yes
Forced : Yes

Audio
ID : 2
Format : DTS
Format/Info : Digital Theater Systems
Codec ID : A_DTS
Duration : 1 h 38 min
Bit rate mode : Constant
Bit rate : 1 509 kb/s
Channel(s) : 6 channels
Channel layout : C L R Ls Rs LFE
Sampling rate : 48.0 kHz
Frame rate : 93.750 FPS (512 SPF)
Bit depth : 24 bits
Compression mode : Lossy
Stream size : 1.04 GiB (16%)
Title : Nomis.2018.1080p.BluRay.x264.DTS-FGT
Language : English
Default : Yes
Forced : No

Text
ID : 3
Format : UTF-8
Codec ID : S_TEXT/UTF8
Codec ID/Info : UTF-8 Plain Text
Duration : 1 h 33 min
Bit rate : 48 b/s
Count of elements : 1279
Stream size : 32.9 KiB (0%)
Language : English
Default : Yes
Forced : No

Menu
00:00:00.000 : en:Chapter 01
00:13:20.299 : en:Chapter 02
00:25:10.884 : en:Chapter 03
00:40:01.107 : en:Chapter 04
00:53:13.315 : en:Chapter 05
01:08:14.507 : en:Chapter 06
01:23:00.141 : en:Chapter 07
01:33:35.651 : en:Chapter 08





1 个附件 售价 大小 下载 时间

Nomis.2018.1080p.BluRay.x264.DTS-FGT.torrent 0 金币 34.07K 679 次 11天前

#1楼
发帖时间:2019-09-12 07:12:16   |   回复数:2
911degrees
隐世仙人♂
非常感谢,谢谢分享
10天前 #2楼
liyouchai
隐世仙人♂
谢谢楼主分享资源
10天前 #3楼
游客组