conanlcg
超级版主

[2019] [欧美] [爱情] [BD-3D] 阿拉丁/阿拉丁真人版 Aladdin.2019.1080p.3D.BluRay.Half-OU.x264.DTS-HD.MA.7.1-FGT 20.94GB

-->

帖子完整标题:阿拉丁/阿拉丁真人版 Aladdin.2019.1080p.3D.BluRay.Half-OU.x264.DTS-HD.MA.7.1-FGT 20.94GB




◎译  名 阿拉丁 / 阿拉丁真人版
◎片  名 Aladdin
◎年  代 2019
◎产  地 美国
◎类  别 爱情 / 歌舞 / 奇幻 / 冒险
◎语  言 英语
◎上映日期 2019-05-24(美国/中国大陆)
◎IMDb评分 7.4/10 from 88756 users
◎IMDb链接 http://www.imdb.com/title/tt6139732
◎豆瓣评分 7.8/10 from 131777 users
◎豆瓣链接 https://movie.douban.com/subject/26891256/
◎片  长 128分钟
◎导  演 盖·里奇 Guy Ritchie
◎编  剧 盖·里奇 Guy Ritchie / 约翰·奥古斯特 John August
◎主  演 梅纳·玛索德 Mena Massoud
      娜奥米·斯科特 Naomi Scott
      威尔·史密斯 Will Smith
      马尔万·肯扎里 Marwan Kenzari
      纳维德·内加班 Navid Negahban
      纽曼·阿卡 Numan Acar
      艾伦·图代克 Alan Tudyk
      比利·马格努森 Billy Magnussen
      纳西姆·帕杜雷德 Nasim Pedrad
      卡米尔·雷米泽斯基 Kamil Lemieszewski
      乔伊·安沙 Joey Ansah
      贾格·帕特尔 Jag Patel
      贝恩·科拉科 Bern Colla?o
      凯西·克莱尔 Cassie Clare
      威尔·布拉格罗夫 Will Blagrove
      哈廷·帕特尔 Hiten Patel
      阿米尔鲍特罗斯 Amir Boutrous
      埃里克·可可 Eric Coco
      弗兰·塔格 Fran Targ
      阿玛尔·阿达蒂亚 Amar Adatia
      乔丹·A·纳什 Jordan A. Nash
      通恰伊·古奈什 Tuncay Gunes
      塞尔哈特·梅汀 Serhat Metin
      凯文·马塔迪恩 Kevin Matadeen
      保利娜·博内瓦 Paulina Boneva
      塔希尔·布尔汉 Tahir Burhan
      亚当·柯林斯 Adam Collins


◎标  签 迪士尼 | 童话 | 奇幻 | 魔幻 | 爱情 | 音乐 | 美国 | 2019

◎简  介

  在充满异域风情的古代阿拉伯王国,善良的穷小子阿拉丁(莫纳·马苏德 饰)和勇敢的茉莉公主(娜奥米·斯科特 饰)浪漫邂逅,在可以满足主人三个愿望的神灯精灵(威尔·史密斯 饰)的帮助下,两人踏上了一次寻找真爱和自我的魔幻冒险。
Video
ID : 1
Format : AVC
Format/Info : Advanced Video Codec
Format profile : [email protected]
Format settings : CABAC / 3 Ref Frames
Format settings, CABAC : Yes
Format settings, Reference frames : 3 frames
Codec ID : V_MPEG4/ISO/AVC
Duration : 2 h 7 min
Bit rate : 16.0 Mb/s
Width : 1 920 pixels
Height : 1 080 pixels
Display aspect ratio : 16:9
Frame rate mode : Constant
Frame rate : 23.976 (24000/1001) FPS
Color space : YUV
Chroma subsampling : 4:2:0
Bit depth : 8 bits
Scan type : Progressive
Bits/(Pixel*Frame) : 0.322
Stream size : 14.3 GiB (68%)
Title : Aladdin.2019.1080p.3D.BluRay.Half-OU.x264.DTS-HD.MA.7.1-FGT
Writing library : x264 core 148
Encoding settings : cabac=1 / ref=3 / deblock=1:-1:-1 / analyse=0x3:0 / me=hex / subme=5 / psy=1 / psy_rd=1.00:0.00 / mixed_ref=0 / me_range=16 / chroma_me=1 / trellis=1 / 8x8dct=1 / cqm=0 / deadzone=21,11 / fast_pskip=0 / chroma_qp_offset=0 / threads=24 / lookahead_threads=6 / sliced_threads=0 / nr=0 / decimate=1 / interlaced=0 / bluray_compat=0 / constrained_intra=0 / bframes=2 / b_pyramid=0 / b_adapt=1 / b_bias=0 / direct=1 / weightb=0 / open_gop=0 / weightp=0 / keyint=24 / keyint_min=2 / scenecut=40 / intra_refresh=0 / rc=abr / mbtree=0 / bitrate=16000 / ratetol=1.0 / qcomp=0.60 / qpmin=0 / qpmax=69 / qpstep=4 / ip_ratio=1.40 / pb_ratio=1.30 / aq=1:1.00
Default : Yes
Forced : No
Color range : Limited
Color primaries : BT.709
Transfer characteristics : BT.709
Matrix coefficients : BT.709

Audio #1
ID : 2
Format : DTS XLL
Format/Info : Digital Theater Systems
Commercial name : DTS-HD Master Audio
Codec ID : A_DTS
Duration : 2 h 7 min
Bit rate mode : Variable
Bit rate : 5 316 kb/s
Channel(s) : 8 channels
Channel layout : C L R LFE Lb Rb Lss Rss
Sampling rate : 48.0 kHz
Frame rate : 93.750 FPS (512 SPF)
Bit depth : 24 bits
Compression mode : Lossless
Stream size : 4.75 GiB (23%)
Title : Aladdin.2019.1080p.3D.BluRay.Half-OU.x264.DTS-HD.MA.7.1-FGT
Language : English
Default : Yes
Forced : No

Audio #2
ID : 3
Format : AC-3
Format/Info : Audio Coding 3
Commercial name : Dolby Digital
Codec ID : A_AC3
Duration : 2 h 7 min
Bit rate mode : Constant
Bit rate : 320 kb/s
Channel(s) : 2 channels
Channel layout : L R
Sampling rate : 48.0 kHz
Frame rate : 31.250 FPS (1536 SPF)
Bit depth : 16 bits
Compression mode : Lossy
Stream size : 293 MiB (1%)
Title : Aladdin.2019.1080p.3D.BluRay.Half-OU.x264.DTS-HD.MA.7.1-FGT
Language : English
Service kind : Complete Main
Default : No
Forced : No

Audio #3
ID : 4
Format : E-AC-3
Format/Info : Enhanced AC-3
Commercial name : Dolby Digital Plus
Format profile : Blu-ray Disc
Codec ID : A_EAC3
Duration : 2 h 7 min
Bit rate mode : Constant
Bit rate : 896 kb/s
Channel(s) : 8 channels
Channel layout : L R C LFE Ls Rs Lb Rb
Sampling rate : 48.0 kHz
Frame rate : 31.250 FPS (1536 SPF)
Compression mode : Lossy
Stream size : 820 MiB (4%)
Title : Aladdin.2019.1080p.3D.BluRay.Half-OU.x264.DTS-HD.MA.7.1-FGT
Language : French
Service kind : Complete Main
Default : No
Forced : No

Audio #4
ID : 5
Format : E-AC-3
Format/Info : Enhanced AC-3
Commercial name : Dolby Digital Plus
Format profile : Blu-ray Disc
Codec ID : A_EAC3
Duration : 2 h 7 min
Bit rate mode : Constant
Bit rate : 896 kb/s
Channel(s) : 8 channels
Channel layout : L R C LFE Ls Rs Lb Rb
Sampling rate : 48.0 kHz
Frame rate : 31.250 FPS (1536 SPF)
Compression mode : Lossy
Stream size : 820 MiB (4%)
Title : Aladdin.2019.1080p.3D.BluRay.Half-OU.x264.DTS-HD.MA.7.1-FGT
Language : German
Service kind : Complete Main
Default : No
Forced : No

Text #1
ID : 6
Format : PGS
Muxing mode : zlib
Codec ID : S_HDMV/PGS
Codec ID/Info : Picture based subtitle format used on BDs/HD-DVDs
Duration : 2 h 7 min
Bit rate : 61.1 kb/s
Count of elements : 4858
Stream size : 55.5 MiB (0%)
Title : English-PGS
Language : English
Default : Yes
Forced : No

Text #2
ID : 7
Format : PGS
Muxing mode : zlib
Codec ID : S_HDMV/PGS
Codec ID/Info : Picture based subtitle format used on BDs/HD-DVDs
Duration : 2 h 6 min
Bit rate : 43.0 kb/s
Count of elements : 3422
Stream size : 39.0 MiB (0%)
Title : French-PGS
Language : French
Default : No
Forced : No

Text #3
ID : 8
Format : PGS
Muxing mode : zlib
Codec ID : S_HDMV/PGS
Codec ID/Info : Picture based subtitle format used on BDs/HD-DVDs
Duration : 2 h 6 min
Bit rate : 47.1 kb/s
Count of elements : 3846
Stream size : 42.8 MiB (0%)
Title : German-PGS
Language : German
Default : No
Forced : No

Text #4
ID : 9
Format : PGS
Muxing mode : zlib
Codec ID : S_HDMV/PGS
Codec ID/Info : Picture based subtitle format used on BDs/HD-DVDs
Duration : 1 s 335 ms
Bit rate : 87.9 kb/s
Count of elements : 2
Stream size : 14.3 KiB (0%)
Title : French-FORCED-PGS
Language : French
Default : No
Forced : No

Menu
00:00:00.000 : en:Chapter 01
00:04:49.372 : en:Chapter 02
00:13:04.658 : en:Chapter 03
00:18:55.759 : en:Chapter 04
00:26:18.410 : en:Chapter 05
00:30:26.324 : en:Chapter 06
00:39:51.889 : en:Chapter 07
00:54:50.161 : en:Chapter 08
01:02:18.651 : en:Chapter 09
01:09:19.488 : en:Chapter 10
01:21:53.033 : en:Chapter 11
01:33:51.417 : en:Chapter 12
01:38:48.380 : en:Chapter 13
01:45:19.396 : en:Chapter 14
01:53:07.030 : en:Chapter 15
01:59:38.462 : en:Chapter 16





1 个附件 售价 大小 下载 时间

Aladdin.2019.1080p.3D.BluRay.Half-OU.x264.DTS-HD.MA.7.1-FGT.torrent 0 金币 52.88K 406 次 11天前

#1楼
发帖时间:2019-09-12 07:10:10   |   回复数:3
911degrees
隐世仙人♂
非常感谢,谢谢分享
10天前 #2楼
liyouchai
隐世仙人♂
谢谢楼主分享资源
10天前 #3楼
jokingcheung
一代宗师
谢谢分享
10天前 #4楼
游客组