conanlcg
超级版主

[2015] [欧美] [其他] [WEB-1080P] 难以比拟:巴尼弗兰克的难以置信的旅程 Compared.to.What.The.Improbable.Journey.of.Barney.Frank.2014.

-->

帖子完整标题:难以比拟:巴尼弗兰克的难以置信的旅程 Compared.to.What.The.Improbable.Journey.of.Barney.Frank.2014.1080p.AMZN.WEBRip.DDP5.1.x264-monkee 6.44GB




◎译  名 难以比拟:巴尼弗兰克的难以置信的旅程
◎片  名 Compared to What: The Improbable Journey of Barney Frank
◎年  代 2015
◎产  地 美国
◎类  别 纪录片 / 传记
◎语  言 英语
◎上映日期 2015-03-20
◎IMDb评分 5.6/10 from 198 users
◎IMDb链接 http://www.imdb.com/title/tt2452352
◎豆瓣评分 0/10 from 0 users
◎豆瓣链接 https://movie.douban.com/subject/26381671/
◎导  演 Sheila Canavan / Michael Chandler
◎主  演 Barney Frank
      Nancy Pelosi


◎标  签 2015 | 美国 | 政治 | 传记 | documentary | Documentary | Biography | BarneyFrank

◎简  介

  An intimate portrait of recently retired Congressman Barney Frank, one of our most well-known and least understood political figures, this documentary alternates between deeply personal moments and the inner workings of our political process. Rare archival material and interviews reveal the emotional pain and harmful effects of a closeted life, the relief of coming out and the triumph of love through the Congressman's historic same-sex marriage. Frank's journey is our country's journey, a classic American story about a dedicated public servant who never loses hope.
Video
ID : 1
Format : AVC
Format/Info : Advanced Video Codec
Format profile : [email protected]
Format settings : CABAC / 4 Ref Frames
Format settings, CABAC : Yes
Format settings, Reference frames : 4 frames
Codec ID : V_MPEG4/ISO/AVC
Duration : 1 h 27 min
Bit rate mode : Variable
Bit rate : 9 699 kb/s
Maximum bit rate : 15.0 Mb/s
Width : 1 920 pixels
Height : 1 080 pixels
Display aspect ratio : 16:9
Frame rate mode : Constant
Frame rate : 29.970 (30000/1001) FPS
Color space : YUV
Chroma subsampling : 4:2:0
Bit depth : 8 bits
Scan type : Progressive
Bits/(Pixel*Frame) : 0.156
Stream size : 5.92 GiB (92%)
Writing library : x264 core 148 r2623 d5b2374
Encoding settings : cabac=1 / ref=4 / deblock=1:-1:-1 / analyse=0x3:0x133 / me=umh / subme=9 / psy=1 / psy_rd=1.00:0.15 / mixed_ref=1 / me_range=24 / chroma_me=1 / trellis=2 / 8x8dct=1 / cqm=0 / deadzone=21,11 / fast_pskip=1 / chroma_qp_offset=-3 / threads=34 / lookahead_threads=5 / sliced_threads=0 / nr=150 / decimate=1 / interlaced=0 / bluray_compat=0 / constrained_intra=0 / bframes=8 / b_pyramid=2 / b_adapt=2 / b_bias=0 / direct=3 / weightb=1 / open_gop=0 / weightp=2 / keyint=150 / keyint_min=76 / scenecut=0 / intra_refresh=0 / rc_lookahead=150 / rc=crf / mbtree=1 / crf=18.0 / qcomp=0.60 / qpmin=0 / qpmax=69 / qpstep=4 / vbv_maxrate=15000 / vbv_bufsize=31250 / crf_max=0.0 / nal_hrd=vbr / filler=0 / ip_ratio=1.40 / aq=3:1.00
Default : Yes
Forced : No
Color range : Limited
Color primaries : BT.709
Transfer characteristics : BT.709
Matrix coefficients : BT.709

Audio
ID : 2
Format : E-AC-3
Format/Info : Enhanced AC-3
Commercial name : Dolby Digital Plus
Codec ID : A_EAC3
Duration : 1 h 27 min
Bit rate mode : Constant
Bit rate : 640 kb/s
Channel(s) : 6 channels
Channel layout : L R C LFE Ls Rs
Sampling rate : 48.0 kHz
Frame rate : 31.250 FPS (1536 SPF)
Compression mode : Lossy
Stream size : 400 MiB (6%)
Language : English
Service kind : Complete Main
Default : Yes
Forced : No

Text
ID : 3
Format : UTF-8
Codec ID : S_TEXT/UTF8
Codec ID/Info : UTF-8 Plain Text
Language : English
Default : No
Forced : No





1 个附件 售价 大小 下载 时间

Compared.to.What.The.Improbable.Journey.of.Barney.Frank.2014.1080p.AMZN.WEBRip.DDP5.1.x264-monkee.torrent 0 金币 65.15K 161 次 11天前

#1楼
发帖时间:2019-09-12 06:50:27   |   回复数:2
911degrees
隐世仙人♂
非常感谢,谢谢分享
10天前 #2楼
liyouchai
隐世仙人♂
谢谢楼主分享资源
10天前 #3楼
游客组