conanlcg
超级版主

[更 早] [欧美] [喜剧] [WEB-1080P] 神探加吉特2/G型神探-II Inspector.Gadget.2.2003.1080p.AMZN.WEBRip.DDP5.1.x264-SiGMA 9.09G

-->

帖子完整标题:神探加吉特2/G型神探-II Inspector.Gadget.2.2003.1080p.AMZN.WEBRip.DDP5.1.x264-SiGMA 9.09GB




◎译  名 神探加吉特2 / G型神探-II / G型神探2
◎片  名 Inspector Gadget 2
◎年  代 2003
◎产  地 美国
◎类  别 喜剧 / 动作 / 家庭
◎语  言 英语
◎上映日期 2003-03-11
◎IMDb评分 3.4/10 from 5212 users
◎IMDb链接 http://www.imdb.com/title/tt0301454
◎豆瓣评分 5.8/10 from 541 users
◎豆瓣链接 https://movie.douban.com/subject/1308937/
◎片  长 89 分钟
◎导  演 亚历克斯·扎姆 Alex Zamm
◎编  剧 亚历克斯·扎姆 Alex Zamm / Andy Heyward / Bruno Bianchi
◎主  演 French Stewart
      Elaine Hendrix
      Tony Martin
      Caitlin Wachs
      Mark Mitchell


◎标  签 喜剧 | 科幻 | 美国 | 漫画改编 | 2003 | 美国电影 | 动画真人版 | 电影

◎简  介

  邪恶的克劳博士(托尼·马丁 Tony Martin 饰)锒铛入狱,令将他捉拿归案的G神探(弗伦奇·斯图尔特 French Stewart 饰)名声大噪。然而好景不长,G神探发现,随着时间的推移,自己身上的很多机能都发生了故障,因而惹出了一大堆的麻烦,G神探遭到了连连降职。
  祸不单行,克劳博士越狱成功,正在酝酿更大的阴谋,想要把整个城市都毁于一旦。为了阻止悲剧的发生,市长设计出了新型机器人G2神探(伊莲·亨德里克斯 Elaine Hendrix 饰),这位精明强干,巾帼不让须眉的机器人小姐很快就抢了G神探的风头。为了维护自己的地位,G神探只得假装和G2神探搞好关系,两人联手追踪着克劳博士的踪迹。
Video
ID : 1
Format : AVC
Format/Info : Advanced Video Codec
Format profile : [email protected]
Format settings : CABAC / 4 Ref Frames
Format settings, CABAC : Yes
Format settings, Reference frames : 4 frames
Codec ID : V_MPEG4/ISO/AVC
Duration : 1 h 28 min
Bit rate mode : Variable
Bit rate : 14.0 Mb/s
Maximum bit rate : 15.0 Mb/s
Width : 1 920 pixels
Height : 1 080 pixels
Display aspect ratio : 16:9
Frame rate mode : Constant
Frame rate : 23.976 (24000/1001) FPS
Color space : YUV
Chroma subsampling : 4:2:0
Bit depth : 8 bits
Scan type : Progressive
Bits/(Pixel*Frame) : 0.282
Stream size : 8.69 GiB (96%)
Writing library : x264 core 148 r2623 d5b2374
Encoding settings : cabac=1 / ref=4 / deblock=1:-1:-1 / analyse=0x3:0x133 / me=umh / subme=9 / psy=1 / psy_rd=1.00:0.15 / mixed_ref=1 / me_range=24 / chroma_me=1 / trellis=2 / 8x8dct=1 / cqm=0 / deadzone=21,11 / fast_pskip=1 / chroma_qp_offset=-3 / threads=34 / lookahead_threads=5 / sliced_threads=0 / nr=150 / decimate=1 / interlaced=0 / bluray_compat=0 / constrained_intra=0 / bframes=8 / b_pyramid=2 / b_adapt=2 / b_bias=0 / direct=3 / weightb=1 / open_gop=0 / weightp=2 / keyint=120 / keyint_min=61 / scenecut=0 / intra_refresh=0 / rc_lookahead=120 / rc=crf / mbtree=1 / crf=18.0 / qcomp=0.60 / qpmin=0 / qpmax=69 / qpstep=4 / vbv_maxrate=15000 / vbv_bufsize=31250 / crf_max=0.0 / nal_hrd=vbr / filler=0 / ip_ratio=1.40 / aq=3:1.00
Default : Yes
Forced : No
Color range : Limited
Color primaries : BT.709
Transfer characteristics : BT.709
Matrix coefficients : BT.709

Audio
ID : 2
Format : E-AC-3
Format/Info : Enhanced AC-3
Commercial name : Dolby Digital Plus
Codec ID : A_EAC3
Duration : 1 h 28 min
Bit rate mode : Constant
Bit rate : 640 kb/s
Channel(s) : 6 channels
Channel layout : L R C LFE Ls Rs
Sampling rate : 48.0 kHz
Frame rate : 31.250 FPS (1536 SPF)
Compression mode : Lossy
Stream size : 406 MiB (4%)
Language : English
Service kind : Complete Main
Default : Yes
Forced : No

Text
ID : 3
Format : UTF-8
Codec ID : S_TEXT/UTF8
Codec ID/Info : UTF-8 Plain Text
Duration : 1 h 28 min
Bit rate : 70 b/s
Count of elements : 2031
Stream size : 45.5 KiB (0%)
Title : English
Language : English
Default : No
Forced : No





1 个附件 售价 大小 下载 时间

Inspector.Gadget.2.2003.1080p.AMZN.WEBRip.DDP5.1.x264-SiGMA.torrent 0 金币 91.40K 371 次 11天前

#1楼
发帖时间:2019-09-12 06:47:37   |   回复数:1
liyouchai
隐世仙人♂
谢谢楼主分享资源
10天前 #2楼
游客组