conanlcg
超级版主

[更 早] [欧美] [剧情] [WEB-1080P] 巫山梦断/巫山梦断肠 The.End.of.the.Affair.1955.1080p.AMZN.WEBRip.DDP2.0.x264-SbR 11.06GB

-->

帖子完整标题:巫山梦断/巫山梦断肠 The.End.of.the.Affair.1955.1080p.AMZN.WEBRip.DDP2.0.x264-SbR 11.06GB




◎译  名 巫山梦断 / 巫山梦断肠 / 恋情的终结
◎片  名 The End of the Affair
◎年  代 1955
◎产  地 英国
◎类  别 剧情 / 爱情
◎语  言 英语
◎上映日期 1955-02-23
◎IMDb评分 6.7/10 from 969 users
◎IMDb链接 http://www.imdb.com/title/tt0048034
◎豆瓣评分 7.1/10 from 51 users
◎豆瓣链接 https://movie.douban.com/subject/1294690/
◎片  长 105 分钟
◎导  演 爱德华·迪麦特雷克 Edward Dmytryk
◎编  剧 格雷厄姆·格林 Graham Greene / 伦诺尔 J. 科菲 Lenore J. Coffee
◎主  演 黛博拉·蔻儿 Deborah Kerr


◎标  签 英国 | 英国电影 | DeborahKerr | 爱情 | Graham_Greene | 1955 | Deborah_Kerr | 1950s

◎简  介

  The novel focuses on Maurice Bendrix, a rising writer during the Second World War in London, and Sarah Miles, the wife of an impotent civil servant. Bendrix is based on Greene himself, and he reflects often on the act of writing a novel. Sarah is based on Greene's lover at the time, Catherine Walston, to whom the book is dedicated.
  Bendrix and Sarah fall in love quickly, but he soon realises that the affair will end as quickly as it began. The relationship suffers from his overt and admitted jealousy. He is frustrated by her refusal to divorce Henry, her amiable but boring husband. When a bomb blasts Bendrix's flat as he is with Sarah, he is nearly killed. After this, Sarah breaks off the affair with no apparent explanation.
  Later, Bendrix is still wracked with jealousy when he sees Henry crossing the Common that separates their flats. Henry has finally started to suspect something, and Bendrix decides to go to a private detective to discover Sarah's new lover. Through her diary, he learns that, when she thought he was dead after the bombing, she made a promise to God not to see Bendrix again if He allowed him to live again. Greene describes Sarah's struggles. After her sudden death from a lung infection brought to a climax by walking on the Common in the rain, several miraculous events occur, advocating for some kind of meaningfulness to Sarah's faith. By the last page of the novel, Bendrix may have come to believe in a God as well, though not to love Him.
  The End of the Affair is the fourth and last of Greene's explicitly Catholic novels.

◎获奖情况

  第8届戛纳电影节(1955)
  主竞赛单元 金棕榈奖(提名) 爱德华·迪麦特雷克
Video
ID : 1
Format : AVC
Format/Info : Advanced Video Codec
Format profile : [email protected]
Format settings : CABAC / 4 Ref Frames
Format settings, CABAC : Yes
Format settings, Reference frames : 4 frames
Codec ID : V_MPEG4/ISO/AVC
Duration : 1 h 45 min
Bit rate mode : Variable
Bit rate : 14.5 Mb/s
Maximum bit rate : 15.0 Mb/s
Width : 1 920 pixels
Height : 1 080 pixels
Display aspect ratio : 16:9
Frame rate mode : Constant
Frame rate : 23.976 (24000/1001) FPS
Color space : YUV
Chroma subsampling : 4:2:0
Bit depth : 8 bits
Scan type : Progressive
Bits/(Pixel*Frame) : 0.291
Stream size : 10.7 GiB (97%)
Writing library : x264 core 148 r2623 d5b2374
Encoding settings : cabac=1 / ref=4 / deblock=1:-1:-1 / analyse=0x3:0x133 / me=umh / subme=9 / psy=1 / psy_rd=1.00:0.15 / mixed_ref=1 / me_range=24 / chroma_me=1 / trellis=2 / 8x8dct=1 / cqm=0 / deadzone=21,11 / fast_pskip=1 / chroma_qp_offset=-3 / threads=34 / lookahead_threads=5 / sliced_threads=0 / nr=150 / decimate=1 / interlaced=0 / bluray_compat=0 / constrained_intra=0 / bframes=8 / b_pyramid=2 / b_adapt=2 / b_bias=0 / direct=3 / weightb=1 / open_gop=0 / weightp=2 / keyint=120 / keyint_min=61 / scenecut=0 / intra_refresh=0 / rc_lookahead=120 / rc=crf / mbtree=1 / crf=18.0 / qcomp=0.60 / qpmin=0 / qpmax=69 / qpstep=4 / vbv_maxrate=15000 / vbv_bufsize=31250 / crf_max=0.0 / nal_hrd=vbr / filler=0 / ip_ratio=1.40 / aq=3:1.00
Language : English
Default : Yes
Forced : No
Color range : Limited
Color primaries : BT.709
Transfer characteristics : BT.709
Matrix coefficients : BT.709

Audio
ID : 2
Format : E-AC-3
Format/Info : Enhanced AC-3
Commercial name : Dolby Digital Plus
Codec ID : A_EAC3
Duration : 1 h 45 min
Bit rate mode : Constant
Bit rate : 224 kb/s
Channel(s) : 2 channels
Channel layout : L R
Sampling rate : 48.0 kHz
Frame rate : 31.250 FPS (1536 SPF)
Compression mode : Lossy
Stream size : 169 MiB (1%)
Language : English
Service kind : Complete Main
Default : Yes
Forced : No

Text #1
ID : 3
Format : UTF-8
Codec ID : S_TEXT/UTF8
Codec ID/Info : UTF-8 Plain Text
Language : English
Default : No
Forced : No

Text #2
ID : 4
Format : UTF-8
Codec ID : S_TEXT/UTF8
Codec ID/Info : UTF-8 Plain Text
Title : SDH
Language : English
Default : No
Forced : No





1 个附件 售价 大小 下载 时间

The.End.of.the.Affair.1955.1080p.AMZN.WEBRip.DDP2.0.x264-SbR.torrent 0 金币 55.95K 231 次 11天前

#1楼
发帖时间:2019-09-12 06:46:19   |   回复数:2
911degrees
隐世仙人♂
非常感谢,谢谢分享
10天前 #2楼
liyouchai
隐世仙人♂
谢谢楼主分享资源
10天前 #3楼
游客组