conanlcg
超级版主

[更 早] [其他] [剧情] [WEB-720P] 威鲸闯天关2/人鱼的童话2 Free.Willy.2.The.Adventure.Home.1995.720p.WEB-DL.DD5.1.H264-FGT 2.

-->

帖子完整标题:威鲸闯天关2/人鱼的童话2 Free.Willy.2.The.Adventure.Home.1995.720p.WEB-DL.DD5.1.H264-FGT 2.98GB




◎译  名 威鲸闯天关2 / 人鱼的童话2
◎片  名 Free Willy 2: The Adventure Home
◎年  代 1995
◎产  地 法国 / 美国
◎类  别 剧情 / 家庭 / 冒险
◎语  言 英语
◎上映日期 1995-07-19
◎IMDb评分 5.0/10 from 15850 users
◎IMDb链接 http://www.imdb.com/title/tt0113114
◎豆瓣评分 8.1/10 from 367 users
◎豆瓣链接 https://movie.douban.com/subject/1298499/
◎片  长 95 分钟
◎导  演 德怀特 H. 利特尔 (Dwight H. Little)
◎编  剧 科里 布莱克曼 (Corey Blechman) / John Mattson (I) / 凯伦 简森 (Karen Janszen)
◎主  演 Jason James Richter
      Keiko


◎标  签 动物 | 美国 | 美国电影 | 环保 | 儿童 | 电影 | 1995 | 童年

◎简  介

  阳光明媚的假日海滩,又迎来各方游客,杰西一家也在海滩搭起了帐篷。杰西惊喜地发现阔别数年的鲸鱼威利和它的海洋家族竟然又游回了这个海域,令他激动不已。一艘大型游船在海上意外触礁,船体漏油,污染了大片海域。鲸鱼家族的生命又危在旦夕!如何让鲸鱼脱离危险?如何不让坏人得逞他们的捕捞计划?杰西和大家再次开始了救援行动。
Video
ID : 1
Format : AVC
Format/Info : Advanced Video Codec
Format profile : [email protected]
Format settings : 2 Ref Frames
Format settings, CABAC : No
Format settings, Reference frames : 2 frames
Codec ID : V_MPEG4/ISO/AVC
Duration : 1 h 37 min
Bit rate : 3 881 kb/s
Width : 1 280 pixels
Height : 534 pixels
Display aspect ratio : 2.40:1
Frame rate mode : Constant
Frame rate : 23.976 FPS
Color space : YUV
Chroma subsampling : 4:2:0
Bit depth : 8 bits
Scan type : Progressive
Bits/(Pixel*Frame) : 0.237
Stream size : 2.65 GiB (89%)
Title : Free.Willy.2.The.Adventure.Home.1995.720p.WEB-DL.DD5.1.H264-FGT
Language : English
Default : Yes
Forced : No
Color range : Limited
Color primaries : BT.709
Transfer characteristics : BT.709
Matrix coefficients : BT.709

Audio
ID : 2
Format : AC-3
Format/Info : Audio Coding 3
Commercial name : Dolby Digital
Codec ID : A_AC3
Duration : 1 h 37 min
Bit rate mode : Constant
Bit rate : 384 kb/s
Channel(s) : 6 channels
Channel layout : L R C LFE Ls Rs
Sampling rate : 48.0 kHz
Frame rate : 31.250 FPS (1536 SPF)
Bit depth : 16 bits
Compression mode : Lossy
Stream size : 269 MiB (9%)
Title : Free.Willy.2.The.Adventure.Home.1995.720p.WEB-DL.DD5.1.H264-FGT
Language : English
Service kind : Complete Main
Default : Yes
Forced : No

Text
ID : 3
Format : UTF-8
Codec ID : S_TEXT/UTF8
Codec ID/Info : UTF-8 Plain Text
Language : English
Default : Yes
Forced : No





1 个附件 售价 大小 下载 时间

Free.Willy.2.The.Adventure.Home.1995.720p.WEB-DL.DD5.1.H264-FGT.torrent 0 金币 60.15K 175 次 11天前

#1楼
发帖时间:2019-09-12 06:42:13   |   回复数:2
911degrees
隐世仙人♂
非常感谢,谢谢分享
11天前 #2楼
liyouchai
隐世仙人♂
谢谢楼主分享资源
10天前 #3楼
游客组