conanlcg
超级版主

[2019] [欧美] [动作] [BD-1080P] 哥斯拉2:怪兽之王 Godzilla.King.of.the.Monsters.2019.1080p.BluRay.x264.DTS-HD.MA.7.1-FGT

-->

帖子完整标题:哥斯拉2:怪兽之王 Godzilla.King.of.the.Monsters.2019.1080p.BluRay.x264.DTS-HD.MA.7.1-FGT 11.76GB




◎译  名 哥斯拉2:怪兽之王 / Godzilla 2 / 哥吉拉II怪兽之王(台) / 哥斯拉2 / 哥斯拉2018 / 哥斯拉II: 王者巨兽(港) / 哥斯拉:怪兽之王
◎片  名 Godzilla: King of the Monsters
◎年  代 2019
◎产  地 美国
◎类  别 动作 / 科幻 / 冒险 / 灾难
◎语  言 英语
◎上映日期 2019-05-25(大规模点映) / 2019-05-31(中国大陆/美国)
◎IMDb评分 6.6/10 from 52008 users
◎IMDb链接 http://www.imdb.com/title/tt3741700
◎豆瓣评分 6.4/10 from 140382 users
◎豆瓣链接 https://movie.douban.com/subject/25890017/
◎片  长 132分钟
◎导  演 迈克尔·道赫蒂 Michael Dougherty
◎编  剧 迈克尔·道赫蒂 Michael Dougherty / 扎克·希尔兹 Zach Shields / 麦克思·鲍伦斯坦 Max Borenstein
◎主  演 凯尔·钱德勒 Kyle Chandler
      维拉·法米加 Vera Farmiga
      米莉·波比·布朗 Millie Bobby Brown
      章子怡 Ziyi Zhang
      渡边谦 Ken Watanabe
      布莱德利·惠特福德 Bradley Whitford
      托马斯·米德蒂奇 Thomas Middleditch
      艾莎·辛德斯 Aisha Hinds
      莎莉·霍金斯 Sally Hawkins
      查尔斯·丹斯 Charles Dance
      大卫·斯特雷泽恩 David Strathairn
      小奥谢拉·杰克逊 O'Shea Jackson Jr.
      希·庞德 CCH Pounder
      安东尼·拉莫斯 Anthony Ramos
      杰森·莱尔斯 Jason Liles
      乔纳森·霍华德 Jonathan Howard
      莱尔·布罗卡托 Lyle Brocato
      兰德尔·P·海文斯 Randall P. Havens
      T·C·马特恩 T.C. Matherne
      吉米·冈萨雷斯 Jimmy Gonzales
      萨莎·里翁达 Sasha Rionda
      文斯·福斯特 Vince Foster
      贾斯蒂斯·利克 Justice Leak
      菲奥娜·哈丁汉姆 Fiona Hardingham
      露西·卡罗尔 Lucie Carroll
      约书亚·利瑞 Joshua Leary
      艾伦·马克森 Alan Maxson
      肯尼斯·以色列 Kenneth Israel
      阿尔·维森特 Al Vicente
      塞西尔·M·亨利 Cecil M. Henry
      迈克尔·大卫·育尔 Michael David Yuhl
      本杰明·韦弗 Benjamin Weaver
      卡梅伦·布鲁姆布罗 Cameron Brumbelow
      帕蒂·舍尔哈斯 Patti Schellhaas
      理查德·多顿 Richard Dorton
      詹姆斯·斯特林 James Sterling
      麦克斯韦·海史密斯 Maxwell Highsmith
      贾斯汀·斯劳特 Justin Slaughter
      肖恩·索斯 Shawn South
      马科·查卡 Marko Caka
      蒂莫西·卡尔 Timothy Carr


◎标  签 怪兽 | 科幻 | 灾难 | 美国 | 2019 | 特效 | 动作 | 日本

◎简  介

  随着《哥斯拉》和《金刚:骷髅岛》在全球范围内取得成功,传奇影业和华纳兄弟影业联手开启了怪兽宇宙系列电影的新篇章—一部史诗级动作冒险巨制。在这部电影中,哥斯拉将和众多大家在流行文化中所熟知的怪兽展开较量。全新故事中,研究神秘动物学的机构“帝王组织”将勇敢直面巨型怪兽,其中强大的哥斯拉也将和魔斯拉、拉顿和它的死对头——三头王者基多拉展开激烈对抗。当这些只存在于传说里的超级生物再度崛起时,它们将展开王者争霸,人类的命运岌岌可危……

Video
ID : 1
Format : AVC
Format/Info : Advanced Video Codec
Format profile : [email protected]
Format settings : CABAC / 5 Ref Frames
Format settings, CABAC : Yes
Format settings, Reference frames : 5 frames
Codec ID : V_MPEG4/ISO/AVC
Duration : 2 h 11 min
Bit rate : 8 865 kb/s
Width : 1 920 pixels
Height : 800 pixels
Display aspect ratio : 2.40:1
Frame rate mode : Constant
Frame rate : 23.976 (24000/1001) FPS
Color space : YUV
Chroma subsampling : 4:2:0
Bit depth : 8 bits
Scan type : Progressive
Bits/(Pixel*Frame) : 0.241
Stream size : 8.15 GiB (69%)
Title : Godzilla.King.of.the.Monsters.2019.1080p.BluRay.x264.DTS-HD.MA.7.1-FGT
Writing library : x264 core 158 r2984 3759fcb
Encoding settings : cabac=1 / ref=5 / deblock=1:-3:-3 / analyse=0x3:0x133 / me=umh / subme=8 / psy=1 / psy_rd=1.00:0.00 / mixed_ref=1 / me_range=16 / chroma_me=1 / trellis=1 / 8x8dct=1 / cqm=0 / deadzone=21,11 / fast_pskip=0 / chroma_qp_offset=-2 / threads=25 / lookahead_threads=4 / sliced_threads=0 / nr=0 / decimate=1 / interlaced=0 / bluray_compat=0 / constrained_intra=0 / bframes=3 / b_pyramid=2 / b_adapt=1 / b_bias=0 / direct=3 / weightb=1 / open_gop=0 / weightp=2 / keyint=250 / keyint_min=23 / scenecut=40 / intra_refresh=0 / rc_lookahead=50 / rc=2pass / mbtree=1 / bitrate=8865 / ratetol=1.0 / qcomp=0.60 / qpmin=0 / qpmax=69 / qpstep=4 / cplxblur=20.0 / qblur=0.5 / vbv_maxrate=62500 / vbv_bufsize=78125 / nal_hrd=none / filler=0 / ip_ratio=1.40 / aq=1:1.00
Language : English
Default : Yes
Forced : No

Audio
ID : 2
Format : DTS XLL
Format/Info : Digital Theater Systems
Commercial name : DTS-HD Master Audio
Codec ID : A_DTS
Duration : 2 h 11 min
Bit rate mode : Variable
Bit rate : 3 901 kb/s
Channel(s) : 8 channels
Channel layout : C L R LFE Lb Rb Lss Rss
Sampling rate : 48.0 kHz
Frame rate : 93.750 FPS (512 SPF)
Bit depth : 24 bits
Compression mode : Lossless
Stream size : 3.59 GiB (31%)
Title : Godzilla.King.of.the.Monsters.2019.1080p.BluRay.x264.DTS-HD.MA.7.1-FGT
Language : English
Default : Yes
Forced : No

Text #1
ID : 3
Format : UTF-8
Codec ID : S_TEXT/UTF8
Codec ID/Info : UTF-8 Plain Text
Duration : 2 h 10 min
Bit rate : 44 b/s
Count of elements : 1310
Stream size : 42.6 KiB (0%)
Title : English-SRT
Language : English
Default : Yes
Forced : No

Text #2
ID : 4
Format : PGS
Muxing mode : zlib
Codec ID : S_HDMV/PGS
Codec ID/Info : Picture based subtitle format used on BDs/HD-DVDs
Duration : 2 h 11 min
Bit rate : 33.0 kb/s
Count of elements : 3322
Stream size : 31.0 MiB (0%)
Title : English-PGS
Language : English
Default : No
Forced : No

Menu
00:00:00.000 : en:00:00:00.000
00:10:53.903 : en:00:10:53.903
00:18:06.836 : en:00:18:06.836
00:30:27.325 : en:00:30:27.325
00:45:18.633 : en:00:45:18.633
00:54:11.039 : en:00:54:11.039
01:05:41.646 : en:01:05:41.646
01:09:31.584 : en:01:09:31.584
01:19:31.308 : en:01:19:31.308
01:30:06.234 : en:01:30:06.234
01:38:36.869 : en:01:38:36.869
01:49:58.884 : en:01:49:58.884
01:59:28.828 : en:01:59:28.828





1 个附件 售价 大小 下载 时间

Godzilla.King.of.the.Monsters.2019.1080p.BluRay.x264.DTS-HD.MA.7.1-FGT.torrent 0 金币 59.35K 25872 次 1月前

#1楼
发帖时间:2019-08-17 11:32:49   |   回复数:13
pwolves
武林盟主
xxfx
1月前 #2楼
qq262935862
武林高手
谢谢楼主分享资源,期待DTS国语
1月前 #3楼
qq27628196
小有名气
感谢楼主
1月前 #4楼
tanchoohoon
武林盟主
感谢楼主的无私分享
1月前 #5楼
ralf_zyq
武林高手
感谢分享
收下了
1月前 #6楼
911degrees
隐世仙人♂
非常感谢,谢谢分享
1月前 #7楼
Jasongreat
武林盟主
这个版本的应该不错吧,谢谢分享了
1月前 #8楼
chenweibin27
武林高手
感谢楼主分享!
1月前 #9楼
igefcufppt
武林高手
谢谢楼主分享好片
1月前 #10楼
jokingcheung
一代宗师
谢谢分享
1月前 #11楼
yydj
武林高手
谢谢楼主分享,收藏了。
22天前 #12楼
1314129
武林盟主
谢楼主分享!
21天前 #13楼
feung18
武林高手
謝謝分享!辛苦了感恩!
20天前 #14楼
游客组