conanlcg
超级版主

[更 早] [欧美] [剧情] [BD-1080P] 危险天王 City.of.Industry.1997.1080p.BluRay.x264-PSYCHD 9.84GB

-->

帖子完整标题:危险天王 City.of.Industry.1997.1080p.BluRay.x264-PSYCHD 9.84GB




◎译  名 危险天王
◎片  名 City of Industry
◎年  代 1997
◎产  地 美国
◎类  别 剧情 / 惊悚 / 犯罪
◎语  言 英语
◎上映日期 1997-05-14
◎IMDb评分 6.2/10 from 5430 users
◎IMDb链接 http://www.imdb.com/title/tt0118859
◎豆瓣评分 0/10 from 0 users
◎豆瓣链接 https://movie.douban.com/subject/1761825/
◎片  长 97分钟
◎导  演 约翰·伊文 John Irvin
◎编  剧 肯·索拉兹 Ken Solarz
◎主  演 哈威·凯特尔 Harvey Keitel
      斯蒂芬·多尔夫 Stephen Dorff
      蒂莫西·赫顿 Timothy Hutton
      法米克·詹森 Famke Janssen
      Wade Dominguez
      Michael Jai White
      刘玉玲 Lucy Liu
      雷诺·维尔森 Reno Wilson
      Dana Barron
      塔玛拉·克拉特布克 Tamara Clatterbuck
      Brian Brophy
      弗朗克西斯·周 Fran?ois Chau
      Flex Alexander
      Brian Shen
      爱万 Ai Wan


◎标  签 美国 | 犯罪 | 刘玉玲 | 哈威凯特 | 美国电影 | 电影 | 动作 | 黑帮

◎简  介

  被生活所迫,乔治、罗伊、李三个惯匪决定抢劫西伯利亚的钻石黑市,乔治邀请了新的盟军斯葛普,通过紧张周密的谋划后,4人轻易的夺过了警察的追捕,但就在最后分享胜利果实的时候,乔治、李双双身亡,撇开了他们的妻子和孩子,从此罗伊开始了复仇之旅。

Video
ID : 1
Format : AVC
Format/Info : Advanced Video Codec
Format profile : [email protected]
Format settings : CABAC / 4 Ref Frames
Format settings, CABAC : Yes
Format settings, RefFrames : 4 frames
Codec ID : V_MPEG4/ISO/AVC
Duration : 1 h 37 min
Bit rate : 13.0 Mb/s
Width : 1 920 pixels
Height : 1 040 pixels
Display aspect ratio : 1.85:1
Frame rate mode : Constant
Frame rate : 23.976 (24000/1001) FPS
Color space : YUV
Chroma subsampling : 4:2:0
Bit depth : 8 bits
Scan type : Progressive
Bits/(Pixel*Frame) : 0.271
Stream size : 8.62 GiB (88%)
Writing library : x264 core 155 r2901 7d0ff22
Encoding settings : cabac=1 / ref=4 / deblock=1:-3:-3 / analyse=0x3:0x113 / me=umh / subme=8 / psy=1 / psy_rd=1.10:0.00 / mixed_ref=1 / me_range=32 / chroma_me=1 / trellis=2 / 8x8dct=1 / cqm=0 / deadzone=21,11 / fast_pskip=1 / chroma_qp_offset=-2 / threads=24 / lookahead_threads=4 / sliced_threads=0 / nr=0 / decimate=1 / interlaced=0 / bluray_compat=0 / constrained_intra=0 / bframes=3 / b_pyramid=2 / b_adapt=2 / b_bias=0 / direct=3 / weightb=1 / open_gop=0 / weightp=2 / keyint=240 / keyint_min=24 / scenecut=40 / intra_refresh=0 / rc_lookahead=50 / rc=2pass / mbtree=1 / bitrate=12988 / ratetol=1.0 / qcomp=0.60 / qpmin=0 / qpmax=69 / qpstep=4 / cplxblur=20.0 / qblur=0.5 / ip_ratio=1.40 / aq=3:0.75
Default : Yes
Forced : No
Statistics Tags Issue : no_variable_data 1970-01-01 00:00:00 / no_variable_data 2010-02-22 21:41:29
FromStats_BitRate : 12988006
FromStats_Duration : 01:37:08.823000000
FromStats_FrameCount : 139752
FromStats_StreamSize : 9463098753

Audio
ID : 2
Format : DTS
Format/Info : Digital Theater Systems
Mode : 16
Format settings, Endianness : Big
Codec ID : A_DTS
Duration : 1 h 37 min
Bit rate mode : Constant
Bit rate : 1 509 kb/s
Channel(s) : 2 channels
Channel positions : Front: L R
Sampling rate : 48.0 kHz
Frame rate : 93.750 FPS (512 SPF)
Bit depth : 24 bits
Compression mode : Lossy
Stream size : 1.02 GiB (10%)
Language : English
Default : Yes
Forced : No
Statistics Tags Issue : no_variable_data 1970-01-01 00:00:00 / no_variable_data 2010-02-22 21:41:29
FromStats_BitRate : 1508999
FromStats_Duration : 01:37:08.651000000
FromStats_FrameCount : 546436
FromStats_StreamSize : 1099429232

Menu
00:00:00.000 : en:00:00:00.000
00:06:50.660 : en:00:06:50.660
00:16:17.810 : en:00:16:17.810
00:30:37.502 : en:00:30:37.502
00:47:34.769 : en:00:47:34.769
00:58:22.499 : en:00:58:22.499
01:11:58.856 : en:01:11:58.856
01:20:05.217 : en:01:20:05.217





1 个附件 售价 大小 下载 时间

City.of.Industry.1997.1080p.BluRay.x264-PSYCHD.torrent 0 金币 98.99K 560 次 3月前

#1楼
发帖时间:2019-07-09 16:08:13   |   回复数:2
911degrees
隐世仙人♂
非常感谢,谢谢分享
3月前 #2楼
liyouchai
隐世仙人♂
谢谢楼主分享资源
3月前 #3楼
游客组