conanlcg
超级版主

[2019] [欧美] [动作] [BD-1080P] 雷霆沙赞! Shazam.2019.1080p.BluRay.x264.DTS-FGT 11.97GB

-->

帖子完整标题:雷霆沙赞! Shazam.2019.1080p.BluRay.x264.DTS-FGT 11.97GB




◎译  名 雷霆沙赞! / Billy Batson and the Legend of Shazam! / Franklin / 奇迹队长 / 沙赞 / 沙赞!(台) / 沙赞!神力集结(港) / 神奇上尉 / 雷霆沙赞
◎片  名 Shazam!
◎年  代 2019
◎产  地 美国
◎类  别 动作 / 奇幻 / 冒险
◎语  言 英语
◎上映日期 2019-04-05(美国/中国大陆)
◎IMDb评分 7.5/10 from 100273 users
◎IMDb链接 http://www.imdb.com/title/tt0448115
◎豆瓣评分 6.6/10 from 110901 users
◎豆瓣链接 https://movie.douban.com/subject/2244426/
◎片  长 132分钟
◎导  演 大卫·F·桑德伯格 David F. Sandberg
◎编  剧 亨利·盖登 Henry Gayden / 达伦·莱姆克 Darren Lemke / 比尔·帕克 Bill Parker / C·C·贝克 C.C. Beck
◎主  演 扎克瑞·莱维 Zachary Levi
      马克·斯特朗 Mark Strong
      亚瑟·安其 Asher Angel
      杰克·迪伦·格雷泽 Jack Dylan Grazer
      杰曼·翰苏 Djimon Hounsou
      费滋·赫尔曼 Faithe Herman
      约文·阿曼德 Jovan Armand
      陈琦烨 Ian Chen
      格蕾丝·富尔顿 Grace Fulton
      亚当·布罗迪 Adam Brody
      梅根·古德 Meagan Good
      米歇尔·博斯 Michelle Borth
      罗斯·巴特勒 Ross Butler
      马尔塔·米兰斯 Marta Milans
      库珀·安德鲁斯 Cooper Andrews
      罗维娜·亚瓦里 Lovina Yavari
      埃文·马什 Evan Marsh
      娜塔莉亚姗福瑞 Natalia Safran
      D·J·科特罗纳 D.J. Cotrona
      艾娃·普雷斯顿 Ava Preston
      安迪·奥修 Andi Osho
      卡尔森·迈克马克 Carson MacCormac
      莎伊娜·瑞恩 Shayna Ryan
      莎拉·贝纳尼 Sarah Bennani
      安吉莉卡·利斯克 Angelica Lisk
      辛迪·戴 Cyndy Day
      洛塔·洛森 Lotta Losten
      西蒙·诺斯伍德 Simon Northwood
      戴维·科赫史密斯 David Kohlsmith
      卢·卢·萨夫兰 Lou Lou Safran
      Adam Rodness
      杰夫·桑卡 Jeff Sanca
      阿里·巴德沙阿 Ali Badshah
      大卫·J·麦克尼尔 David J. MacNeil
      达娜·雷兹尼克 Dana Reznik
      迪索·拉莫斯 Diezel Ramos


◎标  签 DC | 超级英雄 | 沙雕 | 美国 | 喜剧 | 漫画改编 | 2019 | 科幻

◎简  介

  因儿时与母亲失散,少年比利(亚瑟·安其 Asher Angel 饰)辗转多个家庭,却执着地要回到妈妈身边。当他再度栖身一个由养子养女的大家庭时,却阴差阳错来到某个未知的领域,并且成为古老巫师的继承人。当他喊出“沙赞”时,便会瞬间变成拥有强壮成年人身体的超级英雄雷霆沙赞(扎克瑞·莱维 Zachary Levi 饰)。比利兴奋不已,和新家的兄弟——患有腿部残疾的弗雷迪(杰克·迪伦·格雷泽 Jack Dylan Grazer 饰)共同分享这份快乐,两人更将展现各种超能力的视频上传网络,流布四方。结果,心怀叵测的赛迪斯·希瓦纳博士(马克·斯特朗 Mark Strong 饰)找上门来。
希瓦纳童年时曾与沙赞身份失之交臂,一直不受父亲兄长待见的他将灵魂出卖给七宗罪魔鬼,他更企图摧毁那个让他求之不得又恨之入骨的雷霆沙赞……

Video
ID : 1
Format : AVC
Format/Info : Advanced Video Codec
Format profile : [email protected]
Format settings : CABAC / 4 Ref Frames
Format settings, CABAC : Yes
Format settings, ReFrames : 4 frames
Codec ID : V_MPEG4/ISO/AVC
Duration : 2 h 11 min
Bit rate : 11.5 Mb/s
Width : 1 920 pixels
Height : 804 pixels
Display aspect ratio : 2.40:1
Frame rate mode : Constant
Frame rate : 23.976 (24000/1001) FPS
Color space : YUV
Chroma subsampling : 4:2:0
Bit depth : 8 bits
Scan type : Progressive
Bits/(Pixel*Frame) : 0.311
Stream size : 10.6 GiB (88%)
Title : Shazam.2019.1080p.BluRay.x264.DTS-FGT
Writing library : x264 core 148 r2795M aaa9aa8
Encoding settings : cabac=1 / ref=4 / deblock=1:-2:-2 / analyse=0x3:0x113 / me=umh / subme=9 / psy=1 / psy_rd=1.00:0.15 / mixed_ref=1 / me_range=16 / chroma_me=1 / trellis=2 / 8x8dct=1 / cqm=0 / deadzone=21,11 / fast_pskip=1 / chroma_qp_offset=-3 / threads=24 / lookahead_threads=3 / sliced_threads=0 / nr=0 / decimate=1 / interlaced=0 / bluray_compat=0 / constrained_intra=0 / bframes=3 / b_pyramid=2 / b_adapt=1 / b_bias=0 / direct=3 / weightb=1 / open_gop=0 / weightp=2 / keyint=250 / keyint_min=25 / scenecut=40 / intra_refresh=0 / rc_lookahead=50 / rc=2pass / mbtree=1 / bitrate=11500 / ratetol=1.0 / qcomp=0.60 / qpmin=0 / qpmax=69 / qpstep=4 / cplxblur=20.0 / qblur=0.5 / vbv_maxrate=31250 / vbv_bufsize=31250 / nal_hrd=none / filler=0 / ip_ratio=1.40 / aq=1:1.00
Language : English
Default : Yes
Forced : No

Audio
ID : 2
Format : DTS
Format/Info : Digital Theater Systems
Codec ID : A_DTS
Duration : 2 h 11 min
Bit rate mode : Constant
Bit rate : 1 509 kb/s
Channel(s) : 6 channels
Channel layout : C L R Ls Rs LFE
Sampling rate : 48.0 kHz
Frame rate : 93.750 FPS (512 SPF)
Bit depth : 24 bits
Compression mode : Lossy
Stream size : 1.39 GiB (12%)
Title : Shazam.2019.1080p.BluRay.x264.DTS-FGT
Language : English
Default : Yes
Forced : No

Text #1
ID : 3
Format : UTF-8
Codec ID : S_TEXT/UTF8
Codec ID/Info : UTF-8 Plain Text
Duration : 2 h 10 min
Bit rate : 52 b/s
Count of elements : 1755
Stream size : 50.2 KiB (0%)
Language : English
Default : Yes
Forced : No

Text #2
ID : 4
Format : UTF-8
Codec ID : S_TEXT/UTF8
Codec ID/Info : UTF-8 Plain Text
Duration : 2 h 10 min
Bit rate : 64 b/s
Count of elements : 2182
Stream size : 61.7 KiB (0%)
Title : SDH
Language : English
Default : No
Forced : No

Menu
00:00:00.000 : en:Chapter 01
00:08:18.790 : en:Chapter 02
00:15:11.285 : en:Chapter 03
00:25:22.396 : en:Chapter 04
00:31:57.624 : en:Chapter 05
00:39:00.255 : en:Chapter 06
00:50:07.713 : en:Chapter 07
01:01:28.810 : en:Chapter 08
01:08:51.502 : en:Chapter 09
01:16:40.471 : en:Chapter 10
01:24:29.356 : en:Chapter 11
01:34:00.677 : en:Chapter 12
01:43:01.175 : en:Chapter 13
01:52:53.850 : en:Chapter 14
02:00:44.446 : en:Chapter 15





1 个附件 售价 大小 下载 时间

Shazam.2019.1080p.BluRay.x264.DTS-FGT.torrent 0 金币 60.42K 28466 次 3月前

#1楼
发帖时间:2019-06-27 16:22:10   |   回复数:12
pwolves
武林盟主
xxfx
3月前 #2楼
liyouchai
隐世仙人♂
谢谢楼主分享资源
3月前 #3楼
eric223
一代宗师
谢谢分享          
3月前 #4楼
yangbo83222179
一代宗师
谢谢楼主分享,支持一下
3月前 #5楼
911degrees
隐世仙人♂
非常感谢,谢谢分享
3月前 #6楼
feung18
武林高手
非常感謝 ! 您的分享!
3月前 #7楼
chechi008
武林盟主
感谢楼主分享。。
3月前 #8楼
ff8590
武林高手
感谢楼主分享
3月前 #9楼
银色龙骑兵
一派掌门
感谢分享
3月前 #10楼
木不识丁
武林高手

字幕--简体中文


1 个附件 售价 大小 下载 时间

Shazam.2019.1080p.BluRay.x264.DTS-HD.MA.7.1-FGT.srt 0 金币 125.50K 1127 次 3月前

3月前 #11楼
Z7718
无名小卒
感谢楼主分享
3月前 #12楼
lovewangya2009
江湖小虾
感谢楼主分享
2月前 #13楼
游客组