conanlcg
超级版主

[2019] [欧美] [其他] [WEB-1080P] 滚雷巡演:鲍勃·迪伦传奇/奔雷秀 Rolling.Thunder.Revue.A.Bob.Dylan.Story.by.Martin.Scorsese.2019

-->

帖子完整标题:滚雷巡演:鲍勃·迪伦传奇/奔雷秀 Rolling.Thunder.Revue.A.Bob.Dylan.Story.by.Martin.Scorsese.2019.1080p.WEBRip.x264-RARBG 2.71GB




◎译  名 滚雷巡演:鲍勃·迪伦传奇 / 奔雷秀 / 滚雷秀
◎片  名 Rolling Thunder Revue: A Bob Dylan Story by Martin Scorsese
◎年  代 2019
◎产  地 美国
◎类  别 纪录片
◎语  言 英语
◎上映日期 2019-06-12(美国)
◎IMDb评分 9.1/10 from 29 users
◎IMDb链接 http://www.imdb.com/title/tt9577852
◎豆瓣评分 0/10 from 0 users
◎豆瓣链接 https://movie.douban.com/subject/30430720/
◎片  长 142分钟
◎导  演 马丁·斯科塞斯 Martin Scorsese
◎主  演 鲍勃·迪伦 Bob Dylan
      艾伦·金斯堡 Allen Ginsberg
      帕蒂·史密斯 Patti Smith
      琼·贝兹 Joan Baez
      罗杰·麦吉恩 Roger McGuinn
      山姆·夏普德 Sam Shepard
      安·瓦尔德曼 Anne Waldman
      罗尼·布莱克利 Ronee Blakley
      乔尼·米切尔 Joni Mitchell
      鲁宾·哈里肯·卡特 Rubin 'Hurricane' Carter
      迈克尔·墨菲 Michael Murphy
      克劳迪娅·利维 Claudia Levy
      彼得·奥尔洛夫斯基 Peter Orlovsky
      T-本恩·本内特 T-Bone Burnett
      Scarlet Rivera
      Larry 'Ratso' Sloman
      James Gianopulos
      Ramblin' Jack Elliott
      David Mansfield
      Ronnie Hawkins
      Jacques Levy
      Roberta Flack
      Eric Andersen
      Gordon Lightfoot
      Walter Yetnikoff
      Mick Ronson
      Bob Neuwirth


◎标  签 纪录片 | 鲍勃迪伦 | 摇滚 | 民谣 | 音乐 | BobDylan | 音樂 | 美国

◎简  介

  该片改编自迪伦1975年至1976年的《奔雷秀》巡演,片中将包括迪伦本人的幕前采访。本片被描述为捕捉到了1975年陷入困境的美国精神以及迪伦在那年秋天演奏的欢乐音乐。据悉本片不会以传统纪录片的形式展开叙述。

Video
ID : 1
Format : AVC
Format/Info : Advanced Video Codec
Format profile : [email protected]
Format settings : CABAC / 4 Ref Frames
Format settings, CABAC : Yes
Format settings, ReFrames : 4 frames
Codec ID : avc1
Codec ID/Info : Advanced Video Coding
Duration : 2 h 22 min
Bit rate : 2 500 kb/s
Width : 1 920 pixels
Height : 1 080 pixels
Display aspect ratio : 16:9
Frame rate mode : Constant
Frame rate : 23.976 (23976/1000) FPS
Color space : YUV
Chroma subsampling : 4:2:0
Bit depth : 8 bits
Scan type : Progressive
Bits/(Pixel*Frame) : 0.050
Stream size : 2.48 GiB (92%)
Writing library : x264 core 152 r2851M ba24899
Encoding settings : cabac=1 / ref=4 / deblock=1:-1:-1 / analyse=0x3:0x113 / me=umh / subme=9 / psy=1 / psy_rd=1.00:0.15 / mixed_ref=1 / me_range=24 / chroma_me=1 / trellis=2 / 8x8dct=1 / cqm=0 / deadzone=21,11 / fast_pskip=1 / chroma_qp_offset=-3 / threads=32 / lookahead_threads=4 / sliced_threads=0 / nr=0 / decimate=1 / interlaced=0 / bluray_compat=0 / constrained_intra=0 / bframes=3 / b_pyramid=2 / b_adapt=2 / b_bias=0 / direct=3 / weightb=1 / open_gop=0 / weightp=2 / keyint=250 / keyint_min=25 / scenecut=40 / intra_refresh=0 / rc_lookahead=50 / rc=2pass / mbtree=1 / bitrate=2500 / ratetol=1.0 / qcomp=0.60 / qpmin=0 / qpmax=69 / qpstep=4 / cplxblur=20.0 / qblur=0.5 / vbv_maxrate=31250 / vbv_bufsize=31250 / nal_hrd=none / filler=0 / ip_ratio=1.40 / aq=3:1.00
Encoded date : UTC 2019-06-12 11:42:38
Tagged date : UTC 2019-06-12 11:42:38
Codec configuration box : avcC

Audio
ID : 2
Format : AAC LC
Format/Info : Advanced Audio Codec Low Complexity
Codec ID : mp4a-40-2
Duration : 2 h 22 min
Duration_LastFrame : -11 ms
Bit rate mode : Constant
Bit rate : 224 kb/s
Channel(s) : 6 channels
Channel layout : C L R Ls Rs LFE
Sampling rate : 48.0 kHz
Frame rate : 46.875 FPS (1024 SPF)
Compression mode : Lossy
Stream size : 228 MiB (8%)
Language : English
Default : Yes
Alternate group : 1
Encoded date : UTC 2019-06-12 11:42:38
Tagged date : UTC 2019-06-12 11:42:38





1 个附件 售价 大小 下载 时间

Rolling.Thunder.Revue.A.Bob.Dylan.Story.by.Martin.Scorsese.2019.1080p.WEBRip.x264-RARBG.torrent 0 金币 28.70K 882 次 13天前

#1楼
发帖时间:2019-06-13 02:48:17   |   回复数:2
911degrees
隐世仙人♂
非常感谢,谢谢分享
13天前 #2楼
liyouchai
超凡入圣№
谢谢楼主分享资源
12天前 #3楼
游客组