conanlcg
超级版主

[2013] [欧美] [惊悚] [BD-1080P] 复仇之角/神奇犄角 Horns.2013.1080p.BluRay.X264-AMIABLE 7.65GB

-->

帖子完整标题:复仇之角/神奇犄角 Horns.2013.1080p.BluRay.X264-AMIABLE 7.65GB




◎译  名 复仇之角 / 神奇犄角 / 角 / 魔角(台)
◎片  名 Horns
◎年  代 2013
◎产  地 美国
◎类  别 惊悚 / 恐怖 / 奇幻
◎语  言 英语
◎上映日期 2013-09-06(多伦多电影节) / 2014-10-03(美国)
◎IMDb评分 6.5/10 from 70052 users
◎IMDb链接 http://www.imdb.com/title/tt1528071
◎豆瓣评分 5.4/10 from 3618 users
◎豆瓣链接 https://movie.douban.com/subject/4092661/
◎片  长 120分钟
◎导  演 亚历山大·阿嘉 Alexandre Aja
◎编  剧 基思·布宁 Keith Bunin / 乔·希尔 Joe Hill
◎主  演 丹尼尔·雷德克里夫 Daniel Radcliffe
      朱诺·坦普尔 Juno Temple
      海瑟·格拉汉姆 Heather Graham
      凯丽·加纳 Kelli Garner
      塞布丽娜·卡彭特 Sabrina Carpenter
      大卫·摩斯 David Morse
      乔·安德森 Joe Anderson
      詹姆斯·瑞马尔 James Remar
      麦克思·明格拉 Max Minghella
      凯瑟琳·奎南 Kathleen Quinlan
      迪兰·施密德 Dylan Schmid


◎标  签 美国 | 奇幻 | 惊悚 | 魔幻 | 恐怖 | 悬疑 | 犯罪 | 2013

◎简  介

  伊格·佩西斯(丹尼尔·雷德克里夫 Daniel Radcliffe 饰)和梅琳·威廉姆斯(朱诺·坦普尔 Juno Temple 饰)是一对自幼青梅竹马的男女朋友,但在一年前的某天,他们的人生发生了翻天覆地的巨变。两人在森林里约会时,梅琳被人残忍杀害。在此之后伊格作为犯罪嫌疑人遭到警方调查,不过最终他被无罪释放。重获自由身的伊格对梅琳久久无法忘怀,而来自周遭的谴责和质疑更让其痛不欲生。在哀悼梅琳的夜晚,伊格恼羞成怒,做出亵渎神明的举动。次日一早,他惊讶地发现自己长出一对魔鬼的角,而且似乎凡是接近他的人都会变的举止古怪,当彼此接触后更会窥见对方的内心世界。
烦恼不已的伊格,很由此发现梅琳遇害背后的隐情和真正凶手……

◎获奖情况

  第5届豆瓣电影鑫像奖(2015)
  豆渣单元 最渣男演员(外语)(提名) 丹尼尔·雷德克里夫



Video
ID : 1
Format : AVC
Format/Info : Advanced Video Codec
Format profile : [email protected]
Format settings, CABAC : Yes
Format settings, ReFrames : 5 frames
Codec ID : V_MPEG4/ISO/AVC
Duration : 1 h 59 min
Bit rate : 8 500 kb/s
Width : 1 920 pixels
Height : 808 pixels
Display aspect ratio : 2.40:1
Frame rate mode : Constant
Frame rate : 23.976 (24000/1001) FPS
Color space : YUV
Chroma subsampling : 4:2:0
Bit depth : 8 bits
Scan type : Progressive
Bits/(Pixel*Frame) : 0.229
Stream size : 6.96 GiB (91%)
Writing library : x264 core 142 r2491 24e4fed
Encoding settings : cabac=1 / ref=5 / deblock=1:-3:-3 / analyse=0x3:0x113 / me=umh / subme=8 / psy=1 / psy_rd=1.00:0.00 / mixed_ref=1 / me_range=16 / chroma_me=1 / trellis=1 / 8x8dct=1 / cqm=0 / deadzone=21,11 / fast_pskip=1 / chroma_qp_offset=-2 / threads=12 / lookahead_threads=2 / sliced_threads=0 / nr=0 / decimate=1 / interlaced=0 / bluray_compat=0 / constrained_intra=0 / bframes=3 / b_pyramid=2 / b_adapt=2 / b_bias=0 / direct=3 / weightb=1 / open_gop=0 / weightp=2 / keyint=240 / keyint_min=24 / scenecut=40 / intra_refresh=0 / rc_lookahead=50 / rc=2pass / mbtree=1 / bitrate=8500 / ratetol=1.0 / qcomp=0.60 / qpmin=0 / qpmax=69 / qpstep=4 / cplxblur=20.0 / qblur=0.5 / ip_ratio=1.40 / aq=1:1.00
Language : English
Default : Yes
Forced : No

Audio
ID : 2
Format : AC-3
Format/Info : Audio Coding 3
Format settings, Endianness : Big
Codec ID : A_AC3
Duration : 1 h 59 min
Bit rate mode : Constant
Bit rate : 640 kb/s
Channel(s) : 6 channels
Channel positions : Front: L C R, Side: L R, LFE
Sampling rate : 48.0 kHz
Frame rate : 31.250 FPS (1536 spf)
Bit depth : 16 bits
Compression mode : Lossy
Stream size : 548 MiB (7%)
Language : English
Service kind : Complete Main
Default : Yes
Forced : No

Text #1
ID : 3
Format : UTF-8
Codec ID : S_TEXT/UTF8
Codec ID/Info : UTF-8 Plain Text
Title : SDH
Language : English
Default : No
Forced : No

Text #2
ID : 4
Format : UTF-8
Codec ID : S_TEXT/UTF8
Codec ID/Info : UTF-8 Plain Text
Language : English
Default : No
Forced : No

Menu
00:00:00.000 : en:00:00:00.000
00:13:40.528 : en:00:13:40.528
00:24:31.261 : en:00:24:31.261
00:36:11.169 : en:00:36:11.169
00:53:08.685 : en:00:53:08.685
01:09:49.143 : en:01:09:49.143
01:22:26.859 : en:01:22:26.859
01:33:52.377 : en:01:33:52.377
01:42:36.025 : en:01:42:36.025
01:53:58.582 : en:01:53:58.582





1 个附件 售价 大小 下载 时间

Horns.2013.1080p.BluRay.X264-AMIABLE.torrent 0 金币 76.98K 553 次 3月前

#1楼
发帖时间:2019-06-13 02:29:27   |   回复数:4
liyouchai
隐世仙人♂
谢谢楼主分享资源
3月前 #2楼
911degrees
隐世仙人♂
非常感谢,谢谢分享
3月前 #3楼
yangbo83222179
一代宗师
谢谢楼主分享,支持一下
3月前 #4楼
kola13
一派掌门
感谢分享
3月前 #5楼
游客组