conanlcg
超级版主

[2012] [欧美] [剧情] [BD-1080P] 冰人/送冰的人 The.Iceman.2012.LIMITED.1080p.BluRay.x264-GECKOS 6.53GB

-->

帖子完整标题:冰人/送冰的人 The.Iceman.2012.LIMITED.1080p.BluRay.x264-GECKOS 6.53GB




◎译  名 冰人 / 送冰的人
◎片  名 The Iceman
◎年  代 2012
◎产  地 美国
◎类  别 剧情 / 惊悚 / 犯罪
◎语  言 英语
◎上映日期 2012-08-30(威尼斯电影节) / 2013-05-03(美国)
◎IMDb评分 6.9/10 from 65577 users
◎IMDb链接 http://www.imdb.com/title/tt1491044
◎豆瓣评分 6.4/10 from 4236 users
◎豆瓣链接 https://movie.douban.com/subject/3931898/
◎片  长 106分钟
◎导  演 Ariel Vromen
◎编  剧 Morgan Lander / Ariel Vromen
◎主  演 迈克尔·珊农 Michael Shannon
      克里斯·埃文斯 Chris Evans
      薇诺娜·瑞德 Winona Ryder
      雷·利奥塔 Ray Liotta
      詹姆斯·弗兰科 James Franco
      大卫·休默 David Schwimmer
      约翰·文堤米利亚 John Ventimiglia


◎标  签 犯罪 | 美国 | 剧情 | 2012 | 暴力 | 惊悚 | 传记 | 黑社会题材

◎简  介

  职业杀手Richard Kuklinski,一生杀了100多人,他经常将受害人的尸体冻成冰以掩盖死亡时间,江湖人称“冰人”,他有职业操守,不杀女人和小孩。另一方面,他是个顾家的好男人,他的家庭从不知道他的阴暗身份。生活中这个温柔绅士的好男人,深爱着他美丽的妻子和两个可爱的女儿。可秘密从来都不是个轻松的事情,直到真相大白的一天,保守秘密者注定要背着秘密艰难前行:凶残的杀手身份和对家人深沉浓烈的爱让这个“冰人”整日处在灵魂的挣扎中。

Video
ID : 1
Format : AVC
Format/Info : Advanced Video Codec
Format profile : [email protected]
Format settings, CABAC : Yes
Format settings, ReFrames : 4 frames
Codec ID : V_MPEG4/ISO/AVC
Duration : 1 h 45 min
Bit rate : 8 259 kb/s
Width : 1 920 pixels
Height : 1 080 pixels
Display aspect ratio : 16:9
Frame rate mode : Constant
Frame rate : 23.976 FPS
Color space : YUV
Chroma subsampling : 4:2:0
Bit depth : 8 bits
Scan type : Progressive
Bits/(Pixel*Frame) : 0.166
Stream size : 5.93 GiB (91%)
Title : X264
Writing library : x264 core 133 r2334 a3ac64b
Encoding settings : cabac=1 / ref=4 / deblock=1:0:0 / analyse=0x3:0x133 / me=umh / subme=7 / psy=1 / psy_rd=1.00:0.00 / mixed_ref=1 / me_range=16 / chroma_me=1 / trellis=1 / 8x8dct=1 / cqm=0 / deadzone=21,11 / fast_pskip=0 / chroma_qp_offset=-2 / threads=12 / lookahead_threads=2 / sliced_threads=0 / nr=0 / decimate=1 / interlaced=0 / bluray_compat=0 / constrained_intra=0 / bframes=3 / b_pyramid=2 / b_adapt=1 / b_bias=0 / direct=1 / weightb=1 / open_gop=0 / weightp=2 / keyint=250 / keyint_min=23 / scenecut=40 / intra_refresh=0 / rc_lookahead=40 / rc=2pass / mbtree=1 / bitrate=8259 / ratetol=1.0 / qcomp=0.60 / qpmin=0 / qpmax=69 / qpstep=4 / cplxblur=20.0 / qblur=0.5 / ip_ratio=1.40 / aq=1:1.00
Language : English
Default : Yes
Forced : No

Audio
ID : 2
Format : AC-3
Format/Info : Audio Coding 3
Format settings, Endianness : Big
Codec ID : A_AC3
Duration : 1 h 45 min
Bit rate mode : Constant
Bit rate : 640 kb/s
Channel(s) : 6 channels
Channel positions : Front: L C R, Side: L R, LFE
Sampling rate : 48.0 kHz
Frame rate : 31.250 FPS (1536 spf)
Bit depth : 16 bits
Compression mode : Lossy
Stream size : 483 MiB (7%)
Title : DTS
Language : English
Service kind : Complete Main
Default : Yes
Forced : No

Menu
00:00:00.000 : en:00:00:00.000
00:08:11.491 : en:00:08:11.491
00:17:14.575 : en:00:17:14.575
00:24:57.830 : en:00:24:57.830
00:35:08.273 : en:00:35:08.273
00:45:57.630 : en:00:45:57.630
00:56:20.377 : en:00:56:20.377
01:04:05.425 : en:01:04:05.425
01:13:03.588 : en:01:13:03.588
01:19:42.569 : en:01:19:42.569
01:31:17.055 : en:01:31:17.055
01:39:52.403 : en:01:39:52.403





1 个附件 售价 大小 下载 时间

The.Iceman.2012.LIMITED.1080p.BluRay.x264-GECKOS.torrent 0 金币 65.84K 581 次 13天前

#1楼
发帖时间:2019-06-13 02:19:20   |   回复数:3
liyouchai
超凡入圣№
谢谢楼主分享资源
13天前 #2楼
911degrees
隐世仙人♂
非常感谢,谢谢分享
13天前 #3楼
chulps
一代宗师
ddd
13天前 #4楼
游客组