conanlcg
超级版主

[2015] [欧美] [喜剧] [BD-1080P] 定制伴郎 The.Wedding.Ringer.2015.1080p.BluRay.x264-SPARKS 7.74GB

-->

帖子完整标题:定制伴郎 The.Wedding.Ringer.2015.1080p.BluRay.x264-SPARKS 7.74GB




◎译  名 定制伴郎 / The Golden Tux
◎片  名 The Wedding Ringer
◎年  代 2015
◎产  地 美国
◎类  别 喜剧
◎语  言 英语
◎上映日期 2015-01-06(美国)
◎IMDb评分 6.7/10 from 66900 users
◎IMDb链接 http://www.imdb.com/title/tt0884732
◎豆瓣评分 7.1/10 from 8920 users
◎豆瓣链接 https://movie.douban.com/subject/3317370/
◎片  长 101分钟
◎导  演 杰里米·加尔利 Jeremy Garelick
◎编  剧 杰里米·加尔利 Jeremy Garelick / Jay Lavender
◎主  演 凯莉·库柯 Kaley Cuoco
      阿兰·里奇森 Alan Ritchson
      乔什·盖德 Josh Gad
      凯文·哈特 Kevin Hart
      妮基·韦兰 Nicky Whelan
      奥莉薇·瑟尔比 Olivia Thirlby
      克劳斯·利特曼 Cloris Leachman
      咪咪·罗杰斯 Mimi Rogers
      乔治·加西亚 Jorge Garcia
      特里斯汀·梅斯 Tristin Mays
      詹妮弗·路易斯 Jenifer Lewis
      惠特妮·卡明 Whitney Cummings
      阿什莉·琼斯 Ashley Jones
      肯·霍华德 Ken Howard
      杰夫·鲁斯 Jeff Ross
      伊格纳西奥·塞利齐奥 Ignacio Serricchio
      泰·爱兰德 Trae Ireland
      迪索·拉莫斯 Diezel Ramos
      乔纳森·巴卡 Jonathan Baca
      Natalina Maggio
      Peter Gilroy
      Karen Jin Beck
      Tom Fitzpatrick
      Ashley McCarthy
      Aaron Takahashi
      Stefanie Wood
      David Burr


◎标  签 喜剧 | 美国 | 搞笑 | 友情 | 2015 | 爱情 | 伴郎 | 凯文哈特

◎简  介

  影片讲述了乔什·盖德饰演的道格·哈里森即将走入婚姻殿堂,却面临着一个棘手的问题:没有合适的伴郎。随着他与女友(卡蕾·库科 饰)的婚礼临近,道格寻求吉米·卡拉翰(凯文·哈特 饰)的帮助,后者所拥有的公司专门为找不到伴郎的人们提供服务。在筹备婚礼的过程中,道格和吉米上演了啼笑皆非的故事。

◎获奖情况

  第36届金酸莓奖(2016)
  最差男配角(提名) 乔什·加德
  最差女配角 凯莉·库柯



Video
ID : 1
Format : AVC
Format/Info : Advanced Video Codec
Format profile : [email protected]
Format settings, CABAC : Yes
Format settings, ReFrames : 5 frames
Codec ID : V_MPEG4/ISO/AVC
Duration : 1h 41mn
Bit rate : 9 286 Kbps
Width : 1 920 pixels
Height : 800 pixels
Display aspect ratio : 2.40:1
Frame rate mode : Constant
Frame rate : 23.976 fps
Color space : YUV
Chroma subsampling : 4:2:0
Bit depth : 8 bits
Scan type : Progressive
Bits/(Pixel*Frame) : 0.252
Stream size : 6.43 GiB (84%)
Writing library : x264 core 144 r2525 40bb568
Encoding settings : cabac=1 / ref=5 / deblock=1:0:0 / analyse=0x3:0x133 / me=umh / subme=7 / psy=1 / psy_rd=1.00:0.00 / mixed_ref=1 / me_range=16 / chroma_me=1 / trellis=1 / 8x8dct=1 / cqm=0 / deadzone=21,11 / fast_pskip=0 / chroma_qp_offset=-2 / threads=18 / lookahead_threads=3 / sliced_threads=0 / nr=0 / decimate=1 / interlaced=0 / bluray_compat=0 / constrained_intra=0 / bframes=3 / b_pyramid=2 / b_adapt=1 / b_bias=0 / direct=1 / weightb=1 / open_gop=0 / weightp=2 / keyint=250 / keyint_min=23 / scenecut=40 / intra_refresh=0 / rc_lookahead=40 / rc=2pass / mbtree=1 / bitrate=9286 / ratetol=1.0 / qcomp=0.60 / qpmin=0 / qpmax=69 / qpstep=4 / cplxblur=20.0 / qblur=0.5 / ip_ratio=1.40 / aq=1:1.00
Language : English
Default : Yes
Forced : No

Audio
ID : 2
Format : DTS
Format/Info : Digital Theater Systems
Mode : 16
Format settings, Endianness : Big
Codec ID : A_DTS
Duration : 1h 41mn
Bit rate mode : Constant
Bit rate : 1 509 Kbps
Channel(s) : 6 channels
Channel positions : Front: L C R, Side: L R, LFE
Sampling rate : 48.0 KHz
Bit depth : 24 bits
Compression mode : Lossy
Stream size : 1.07 GiB (14%)
Language : English
Default : Yes
Forced : No

Menu
00:00:00.000 : en:00:00:00.000
00:08:14.077 : en:00:08:14.077
00:13:08.538 : en:00:13:08.538
00:19:36.675 : en:00:19:36.675
00:23:17.479 : en:00:23:17.479
00:27:22.558 : en:00:27:22.558
00:33:22.417 : en:00:33:22.417
00:40:42.023 : en:00:40:42.023
00:47:49.950 : en:00:47:49.950
00:53:47.641 : en:00:53:47.641
01:01:40.906 : en:01:01:40.906
01:07:18.868 : en:01:07:18.868
01:12:35.268 : en:01:12:35.268
01:19:47.908 : en:01:19:47.908
01:27:12.978 : en:01:27:12.978
01:35:08.202 : en:01:35:08.202





1 个附件 售价 大小 下载 时间

The.Wedding.Ringer.2015.1080p.BluRay.x264-SPARKS.torrent 0 金币 78.53K 336 次 13天前

#1楼
发帖时间:2019-06-13 02:11:18   |   回复数:2
liyouchai
超凡入圣№
谢谢楼主分享资源
13天前 #2楼
911degrees
隐世仙人♂
非常感谢,谢谢分享
13天前 #3楼
游客组