conanlcg
超级版主

[更 早] [香港] [剧情] [BD-1080P] 方世玉與洪熙官 Heroes.Two.1974.1080p.BluRay.x264-SSF 6.56GB

-->

帖子完整标题:方世玉與洪熙官 Heroes.Two.1974.1080p.BluRay.x264-SSF 6.56GB




◎译  名 方世玉与洪熙官 / Heroes Two
◎片  名 方世玉與洪熙官
◎年  代 1974
◎产  地 香港
◎类  别 剧情 / 动作
◎语  言 汉语普通话
◎上映日期 1974-01-19
◎IMDb评分 6.7/10 from 403 users
◎IMDb链接 http://www.imdb.com/title/tt0070051
◎豆瓣评分 6.3/10 from 375 users
◎豆瓣链接 https://movie.douban.com/subject/1299676/
◎片  长 West Germany: 86 分钟
◎导  演 张彻
◎编  剧 张彻 / 倪匡
◎主  演 傅声
      陈观泰
      方心
      陈全
      冯克安


◎标  签 张彻 | 邵氏 | 香港 | 傅声 | 动作 | 香港电影 | 陈观泰 | 1974

◎简  介

  清兵火烧少林,寺中人员伤亡惨重,洪熙官(陈观泰 饰)虽然幸免于难但是身受重伤,他决定暂时偃旗息鼓待到他日能够东山再起,哪知道逃亡的一路上屡屡遭到官兵的追杀。某日,洪熙官正在和追捕他的官兵周旋,陷入鏖战之中,巧得方世玉(傅声 饰)路过,方世玉误以为洪熙官是作奸犯科之徒,于是帮助官兵将他五花大绑交至官府。
之后,方世玉才知道,原来此人是大名鼎鼎的洪熙官,自己竟然成为了朝廷小人的帮凶,后悔不已的方世玉伙同一帮武林豪杰,一行人开始研究起了解救洪熙官的策略。

Video
ID : 1
Format : AVC
Format/Info : Advanced Video Codec
Format profile : [email protected]
Format settings : CABAC / 5 Ref Frames
Format settings, CABAC : Yes
Format settings, ReFrames : 5 frames
Codec ID : V_MPEG4/ISO/AVC
Duration : 1 h 31 min
Bit rate : 9 565 kb/s
Width : 1 920 pixels
Height : 816 pixels
Display aspect ratio : 2.35:1
Frame rate mode : Constant
Frame rate : 23.976 (24000/1001) FPS
Color space : YUV
Chroma subsampling : 4:2:0
Bit depth : 8 bits
Scan type : Progressive
Bits/(Pixel*Frame) : 0.255
Stream size : 6.02 GiB (92%)
Writing library : x264 core 107 r1745 4785e8e
Encoding settings : cabac=1 / ref=5 / deblock=1:-1:-1 / analyse=0x3:0x133 / me=umh / subme=7 / psy=1 / psy_rd=1.00:0.15 / mixed_ref=1 / me_range=16 / chroma_me=1 / trellis=1 / 8x8dct=1 / cqm=0 / deadzone=21,11 / fast_pskip=0 / chroma_qp_offset=-3 / threads=12 / sliced_threads=0 / nr=0 / decimate=1 / interlaced=0 / constrained_intra=0 / bframes=3 / b_pyramid=2 / b_adapt=1 / b_bias=0 / direct=1 / weightb=1 / open_gop=0 / weightp=2 / keyint=250 / keyint_min=23 / scenecut=40 / intra_refresh=0 / rc_lookahead=40 / rc=2pass / mbtree=1 / bitrate=9565 / ratetol=1.0 / qcomp=0.60 / qpmin=10 / qpmax=51 / qpstep=4 / cplxblur=20.0 / qblur=0.5 / ip_ratio=1.40 / aq=1:1.00
Language : English
Default : No
Forced : No

Audio
ID : 2
Format : AC-3
Format/Info : Audio Coding 3
Commercial name : Dolby Digital
Codec ID : A_AC3
Duration : 1 h 31 min
Bit rate mode : Constant
Bit rate : 640 kb/s
Channel(s) : 2 channels
Channel layout : L R
Sampling rate : 48.0 kHz
Frame rate : 31.250 FPS (1536 SPF)
Bit depth : 16 bits
Compression mode : Lossy
Stream size : 421 MiB (6%)
Language : Chinese
Service kind : Complete Main
Default : Yes
Forced : No

Text
ID : 3
Format : UTF-8
Codec ID : S_TEXT/UTF8
Codec ID/Info : UTF-8 Plain Text
Language : English
Default : Yes
Forced : No





1 个附件 售价 大小 下载 时间

Heroes.Two.1974.1080p.BluRay.x264-SSF.torrent 0 金币 33.26K 1561 次 3月前

#1楼
发帖时间:2019-06-13 01:37:14   |   回复数:3
liyouchai
隐世仙人♂
谢谢楼主分享资源
3月前 #2楼
911degrees
隐世仙人♂
非常感谢,谢谢分享
3月前 #3楼
tanchoohoon
武林盟主
感谢楼主的无私分享
3月前 #4楼
游客组