conanlcg
超级版主

[更 早] [欧美] [惊悚] [BD-1080P] 灵猩/林克 Link.1986.RERIP.1080p.BluRay.x264-SNOW 7.64GB

-->

帖子完整标题:灵猩/林克 Link.1986.RERIP.1080p.BluRay.x264-SNOW 7.64GB




◎译  名 灵猩 / 林克
◎片  名 Link
◎年  代 1986
◎产  地 英国
◎类  别 惊悚 / 恐怖
◎语  言 英语
◎上映日期 1986-03-05
◎IMDb评分 5.9/10 from 2319 users
◎IMDb链接 http://www.imdb.com/title/tt0091415
◎豆瓣评分 0/10 from 0 users
◎豆瓣链接 https://movie.douban.com/subject/3006249/
◎片  长 USA: 103 分钟
◎导  演 理查德·富兰克林 Richard Franklin
◎编  剧 Lee David Zlotoff / Tom Ackermann
◎主  演 Elisabeth Shue
      Terence Stamp


◎标  签 恐怖 | 英国 | 惊悚 | 童年回忆 | 伊丽莎白·苏 | 电影 | 1986 | 英国,幽灵哥佑佑

◎简  介

  Student Jane jobs as an assistant for the animal researcher Phillip in a lonesome old house. They live alone except for the chimpanzees and butler Link: a 45 years old very intelligent orangutan. Phillip wants to put Link to death. However before he can do this he's vanished tracelessly one morning. Link starts behaving more and more aggressive and prohibits Jane from using the phone or reaching the next village. When she punishes him by locking him out, he becomes violent.

http://pan.baidu.com/share/link?shareid=2815480905&uk=2435219145
提取密码:7j5g
解压密码:pbwgts

Video
ID : 1
Format : AVC
Format/Info : Advanced Video Codec
Format profile : [email protected]
Format settings : CABAC / 4 Ref Frames
Format settings, CABAC : Yes
Format settings, ReFrames : 4 frames
Codec ID : V_MPEG4/ISO/AVC
Duration : 1 h 43 min
Bit rate : 9 046 kb/s
Width : 1 808 pixels
Height : 1 080 pixels
Display aspect ratio : 5:3
Frame rate mode : Constant
Frame rate : 23.976 (24000/1001) FPS
Color space : YUV
Chroma subsampling : 4:2:0
Bit depth : 8 bits
Scan type : Progressive
Bits/(Pixel*Frame) : 0.193
Stream size : 6.39 GiB (84%)
Writing library : x264 core 157 r2969 d4099dd
Encoding settings : cabac=1 / ref=4 / deblock=1:0:0 / analyse=0x3:0x113 / me=umh / subme=8 / psy=1 / psy_rd=1.00:0.00 / mixed_ref=1 / me_range=16 / chroma_me=1 / trellis=1 / 8x8dct=1 / cqm=0 / deadzone=21,11 / fast_pskip=1 / chroma_qp_offset=-2 / threads=24 / lookahead_threads=4 / sliced_threads=0 / nr=0 / decimate=1 / interlaced=0 / bluray_compat=0 / constrained_intra=0 / bframes=3 / b_pyramid=2 / b_adapt=1 / b_bias=0 / direct=3 / weightb=1 / open_gop=0 / weightp=2 / keyint=240 / keyint_min=24 / scenecut=40 / intra_refresh=0 / rc_lookahead=50 / rc=2pass / mbtree=1 / bitrate=9046 / ratetol=1.0 / qcomp=0.60 / qpmin=0 / qpmax=69 / qpstep=4 / cplxblur=20.0 / qblur=0.5 / ip_ratio=1.40 / aq=1:1.00
Language : English
Default : Yes
Forced : No

Audio
ID : 2
Format : DTS
Format/Info : Digital Theater Systems
Codec ID : A_DTS
Duration : 1 h 43 min
Bit rate mode : Constant
Bit rate : 1 509 kb/s
Channel(s) : 2 channels
Channel layout : L R
Sampling rate : 48.0 kHz
Frame rate : 93.750 FPS (512 SPF)
Bit depth : 24 bits
Compression mode : Lossy
Stream size : 1.09 GiB (14%)
Language : English
Default : Yes
Forced : No

Text
ID : 3
Format : UTF-8
Codec ID : S_TEXT/UTF8
Codec ID/Info : UTF-8 Plain Text
Title : English Regular
Language : English
Default : No
Forced : No

Menu
00:00:00.000 : en:Chapter 01
00:12:24.740 : en:Chapter 02
00:22:51.408 : en:Chapter 03
00:35:12.314 : en:Chapter 04
00:48:17.349 : en:Chapter 05
01:02:17.104 : en:Chapter 06
01:16:00.427 : en:Chapter 07
01:27:48.551 : en:Chapter 08





1 个附件 售价 大小 下载 时间

Link.1986.RERIP.1080p.BluRay.x264-SNOW.torrent 0 金币 38.98K 224 次 1月前

#1楼
发帖时间:2019-05-25 11:19:14   |   回复数:4
clearlove
小有名气
感谢分享666
1月前 #2楼
cass666
江湖小虾
学生简工作作为动物的助理研究员Phillip寂寞的老房子。他们独自生活除了黑猩猩和巴特勒链接:45岁非常聪明的猩猩。菲利普想死链接。然而之前他可以一天早上无踪迹的消失了。链接行为越来越咄咄逼人,禁止简开始使用电话或者达到下一个村子。当她锁定他,惩罚他的他变得暴力
1月前 #3楼
liyouchai
隐世仙人♂
谢谢楼主分享资源
1月前 #4楼
911degrees
隐世仙人♂
非常感谢,谢谢分享
1月前 #5楼
游客组