conanlcg
超级版主

[2008] [欧美] [剧情] [BD-1080P] 冰冻之河/冰原之心 Frozen.River.2008.1080p.BluRay.x264.DD5.1-FGT 9.57GB

-->

帖子完整标题:冰冻之河/冰原之心 Frozen.River.2008.1080p.BluRay.x264.DD5.1-FGT 9.57GB




◎译  名 冰冻之河 / 冰原之心(台) / 急冻边境
◎片  名 Frozen River
◎年  代 2008
◎产  地 美国
◎类  别 剧情 / 犯罪
◎语  言 英语 / 法语
◎上映日期 2008-08-01
◎IMDb评分 7.2/10 from 23520 users
◎IMDb链接 http://www.imdb.com/title/tt0978759
◎豆瓣评分 7.6/10 from 3871 users
◎豆瓣链接 https://movie.douban.com/subject/2996114/
◎片  长 97 分钟
◎导  演 科特妮·亨特 Courtney Hunt
◎编  剧 科特妮·亨特 Courtney Hunt
◎主  演 梅丽莎·里奥 Melissa Leo
      米丝蒂·阿哈姆 Misty Upham
      查利·麦克德莫特 Charlie McDermott
      迈克尔·奥吉弗 Michael O'Keefe


◎标  签 美国 | 女性 | 独立电影 | 剧情 | 美国电影 | 犯罪 | 2008 | 独立

◎简  介

  艾迪(梅丽莎·里奥 Melissa Leo 饰)是一名单身母亲,在不久之前,背负了巨额赌债的丈夫席卷了家中全部的积蓄自此消失不见,留下了两个年幼的孩子不管不顾,而面对这一窘境,艾迪也只能咬紧牙关默默承担。为了能让孩子们健康顺利的成长,艾迪不得不参与了当地的非法犯罪活动,尽管充满了罪恶和危险,但面对高额的回报,艾迪无法拒绝。某一天,一名与艾迪境遇相似的女人利拉(米丝蒂·阿哈姆 Misty Upham 饰)找到了艾迪,恳求她带她一同参与行动,拗不过利拉的执着,艾迪答应了。
就这样,两个身形单薄的女人上路了,她们此次的任务是穿越冰冻的圣罗伦斯河,除了警察外,恶劣的自然环境是另一大威胁。她们能否顺利的完成任务,而之后的生活又该怎样继续下去呢?

◎获奖情况

  第81届奥斯卡金像奖(2009)
  最佳女主角(提名) 梅丽莎·里奥
  最佳原创剧本(提名) 科特妮·亨特

  第9届美国电影学会奖(2008)
  年度佳片



Video
ID : 1
Format : AVC
Format/Info : Advanced Video Codec
Format profile : [email protected]
Format settings : CABAC / 4 Ref Frames
Format settings, CABAC : Yes
Format settings, ReFrames : 4 frames
Codec ID : V_MPEG4/ISO/AVC
Duration : 1 h 36 min
Bit rate : 13.5 Mb/s
Width : 1 906 pixels
Height : 1 078 pixels
Display aspect ratio : 16:9
Frame rate mode : Constant
Frame rate : 23.976 (24000/1001) FPS
Color space : YUV
Chroma subsampling : 4:2:0
Bit depth : 8 bits
Scan type : Progressive
Bits/(Pixel*Frame) : 0.274
Stream size : 9.14 GiB (95%)
Writing library : x264 core 148 r2705 3f5ed56
Encoding settings : cabac=1 / ref=4 / deblock=1:-3:-3 / analyse=0x3:0x133 / me=umh / subme=10 / psy=1 / psy_rd=1.00:0.00 / mixed_ref=1 / me_range=32 / chroma_me=1 / trellis=2 / 8x8dct=1 / cqm=0 / deadzone=21,11 / fast_pskip=0 / chroma_qp_offset=-2 / threads=18 / lookahead_threads=3 / sliced_threads=0 / slices=4 / nr=0 / decimate=0 / interlaced=0 / bluray_compat=0 / constrained_intra=0 / bframes=8 / b_pyramid=2 / b_adapt=2 / b_bias=0 / direct=3 / weightb=1 / open_gop=0 / weightp=2 / keyint=250 / keyint_min=23 / scenecut=40 / intra_refresh=0 / rc_lookahead=40 / rc=2pass / mbtree=0 / bitrate=13500 / ratetol=1.0 / qcomp=0.65 / qpmin=0 / qpmax=51 / qpstep=4 / cplxblur=20.0 / qblur=0.5 / vbv_maxrate=62500 / vbv_bufsize=78125 / nal_hrd=none / filler=0 / ip_ratio=1.40 / pb_ratio=1.30 / aq=3:0.75
Language : English
Default : Yes
Forced : No

Audio
ID : 2
Format : AC-3
Format/Info : Audio Coding 3
Commercial name : Dolby Digital
Codec ID : A_AC3
Duration : 1 h 36 min
Bit rate mode : Constant
Bit rate : 640 kb/s
Channel(s) : 6 channels
Channel layout : L R C LFE Ls Rs
Sampling rate : 48.0 kHz
Frame rate : 31.250 FPS (1536 SPF)
Bit depth : 16 bits
Compression mode : Lossy
Stream size : 444 MiB (5%)
Title : English AC3 5.1 @ 640 Kbps
Language : English
Service kind : Complete Main
Default : Yes
Forced : No

Text #1
ID : 3
Format : UTF-8
Codec ID : S_TEXT/UTF8
Codec ID/Info : UTF-8 Plain Text
Duration : 1 h 33 min
Bit rate : 41 b/s
Count of elements : 902
Stream size : 28.7 KiB (0%)
Title : English
Language : English
Default : No
Forced : No

Text #2
ID : 4
Format : UTF-8
Codec ID : S_TEXT/UTF8
Codec ID/Info : UTF-8 Plain Text
Duration : 1 h 36 min
Bit rate : 43 b/s
Count of elements : 1114
Stream size : 31.0 KiB (0%)
Title : English SDH
Language : English
Default : No
Forced : No

Menu
00:00:00.000 : en:1
00:05:13.646 : en:2
00:14:08.514 : en:3
00:18:05.793 : en:4
00:22:48.366 : en:5
00:28:47.350 : en:6
00:33:43.813 : en:7
00:39:22.735 : en:8
00:45:29.726 : en:9
00:49:59.579 : en:10
00:59:23.268 : en:11
01:05:32.261 : en:12
01:12:55.579 : en:13
01:17:39.279 : en:14
01:20:20.941 : en:15
01:27:06.554 : en:16





1 个附件 售价 大小 下载 时间

Frozen.River.2008.1080p.BluRay.x264.DD5.1-FGT.torrent 0 金币 48.38K 749 次 4月前

#1楼
发帖时间:2019-05-25 06:47:22   |   回复数:2
911degrees
隐世仙人♂
非常感谢,谢谢分享
4月前 #2楼
liyouchai
隐世仙人♂
谢谢楼主分享资源
4月前 #3楼
游客组