conanlcg
超级版主

[2007] [欧美] [剧情] [BD-1080P] 超人之死 Superman.Doomsday.2007.1080p.BluRay.x264-CiNEFiLE 4.37GB

-->

帖子完整标题:超人之死 Superman.Doomsday.2007.1080p.BluRay.x264-CiNEFiLE 4.37GB




◎译  名 超人之死
◎片  名 Superman Doomsday
◎年  代 2007
◎产  地 美国
◎类  别 剧情 / 动作 / 动画 / 冒险
◎语  言 英语 / 英语 / 西班牙语
◎上映日期 2007-09-18
◎IMDb评分 7.0/10 from 18504 users
◎IMDb链接 http://www.imdb.com/title/tt0934706
◎豆瓣评分 6.5/10 from 2009 users
◎豆瓣链接 https://movie.douban.com/subject/2255890/
◎片  长 75分钟
◎导  演 劳伦·蒙哥马利 Lauren Montgomery / 布鲁斯·提姆 Bruce W. Timm
◎主  演 亚当·鲍德温 Adam Baldwin
      安·海切 Anne Heche
      詹姆斯·马斯特斯 James Marsters


◎标  签 动画 | DC | 美国 | 超人 | 科幻 | 超级英雄 | 2007 | 漫画改编

◎简  介

  故事旁白从雷克斯·路瑟开始,描述超人所作的英雄事迹及形象。雷克斯描述超人作为一个地球上的神,但坚持说“该来的时候,甚至是神也必须要死”。
露易丝·莲恩和超人正在浪漫的约会,但露意丝对他们的关系安排并不满意。超人坚持认为,两人的关系只能隐密地在孤独堡垒中度过。他还没有向他透露自己真实身份是克拉克·肯特,尽管露意丝已经开始怀疑。
另一方面雷克斯公司挖掘到一艘太空船,当工人正在执行挖掘的工作时不小心将基因改造的凶残怪物末日杀手释放。末日杀手将工人们全数杀害后一步步走到了都市,一路上将鹿、狗、狗的主人全都杀死。横冲直撞的末日杀手到达大都市后随即被超人发现,两人并展开大战。最后超人全力抓着它从高空直落撞击地面,露易丝与同事吉米·奥尔森告诉受重伤的超人已成功打倒敌人,但超人也因受伤过重而断了气。
世界集体哀悼他们倒下的英雄,并在公园建立了超人的纪念碑。后来雷克斯将他的女助理一枪杀死以确保再也没人知道雷克斯公司和末日杀手的出现有关。后来吉米对超人的死相当难过,意外地到了其他大间的报社上班。超人死后,犯罪率增加,玩具人操控著巨大机械蜘蛛并挟持了一辆戴满小孩的校车在屋顶上,露易丝决定将人质救出,便独自前往,但在遇到危机时,超人意外地及时出现制伏了玩具人。露易丝开心地和复活的超人一吻,后来超人的养母玛莎感到质疑为什么他没有打电话回家,露易丝也认为超人有点奇怪。
后来透露其实复活的超人是雷克斯制造的克隆人,雷克斯在超人与末日杀手一战时采集了前者的血液,因此复制超人只听命于雷克斯。后来雷克斯将复制超人引到了一间有红色太阳光的房间,并戴上氪石的手套不断打击他藉以发泄。打完后雷克斯便前去看他私自挖出的超人本尊尸体。但实际上超人还活着,并偷偷地被超人的机器人助手移到孤独堡垒中恢复。
复制超人在看到逃狱后的玩具人杀死了一名4岁的女孩的报导时,性格突然变得灰暗,即刻前去把玩具人杀掉,此作法使得周遭的人感到奇怪,警察也开始追捕他,露易丝认为他不是真的超人。后来露意丝和吉米发现了雷克斯想要复制超人大军的计划,在雷克斯正打算将两人解决时,突然复制超人出面帮助了两人且还将所有的复制超人试管全数破坏,因为复制超人自行将自己体内含铅的氪石拿出使得雷克斯无法控制他。
另一方面真正的超人在机器人助手的帮助下渐渐恢复力量,但后来听到有关军队和复制超人开战的消息便即时前往,但因力量只恢复了六成,机器人给他穿上了黑色的太阳超人装并将氪石枪交给超人。后来超人便和复制超人展开对战,超人的氪石枪被打飞至远处,超人持续处于下风,露易丝将氪石枪捡起并打算射复制超人时被对方破坏了枪,但氪石罐掉了出来。复制超人在石油地打倒超人时将一旁的纪念碑举起打算了结对方,超人用热力射线将黏于复制超人胸口的氪石罐打破冒出了大量的氪气体,复制超人因此败北。临死前,他告诉超人要保护人民。露易丝确定了他是真正的超人并亲吻了他,同时也赢得大家的信赖。
超人在露易丝的公寓,发现她的文章“复活”拼错,并戴上眼镜证明自己就是克拉克,露易丝便高兴地拥抱他。在雷克斯公司,雷克斯先前被复制超人打成重伤,但仍活着叙述历史已经证明,神可以死,但他们还可以回到从死里复活。他对自己微笑、沉思,可能又再想要如何摧毁超人。

Video
ID : 1
Format : AVC
Format/Info : Advanced Video Codec
Format profile : [email protected]
Format settings : CABAC / 4 Ref Frames
Format settings, CABAC : Yes
Format settings, ReFrames : 4 frames
Codec ID : V_MPEG4/ISO/AVC
Duration : 1 h 17 min
Bit rate : 7 415 kb/s
Width : 1 920 pixels
Height : 1 080 pixels
Display aspect ratio : 16:9
Frame rate mode : Constant
Frame rate : 23.976 FPS
Color space : YUV
Chroma subsampling : 4:2:0
Bit depth : 8 bits
Scan type : Progressive
Bits/(Pixel*Frame) : 0.149
Stream size : 3.94 GiB (90%)
Writing library : x264 core 65 r1026 745a48b
Encoding settings : cabac=1 / ref=4 / deblock=1:0:0 / analyse=0x3:0x113 / me=umh / subme=7 / psy_rd=1.0:0.0 / mixed_ref=1 / me_range=16 / chroma_me=1 / trellis=1 / 8x8dct=1 / cqm=0 / deadzone=21,11 / chroma_qp_offset=-2 / threads=6 / nr=0 / decimate=1 / mbaff=0 / bframes=3 / b_pyramid=1 / b_adapt=1 / b_bias=0 / direct=1 / wpredb=1 / keyint=250 / keyint_min=25 / scenecut=40(pre) / rc=2pass / bitrate=7415 / ratetol=1.0 / qcomp=0.60 / qpmin=10 / qpmax=51 / qpstep=4 / cplxblur=20.0 / qblur=0.5 / ip_ratio=1.40 / pb_ratio=1.30 / aq=1:1.00
Language : English
Default : Yes
Forced : No

Audio
ID : 2
Format : AC-3
Format/Info : Audio Coding 3
Commercial name : Dolby Digital
Codec ID : A_AC3
Duration : 1 h 17 min
Bit rate mode : Constant
Bit rate : 640 kb/s
Channel(s) : 6 channels
Channel layout : L R C LFE Ls Rs
Sampling rate : 48.0 kHz
Frame rate : 31.250 FPS (1536 SPF)
Bit depth : 16 bits
Compression mode : Lossy
Stream size : 356 MiB (8%)
Language : English
Service kind : Complete Main
Default : Yes
Forced : No

Text
ID : 3
Format : UTF-8
Codec ID : S_TEXT/UTF8
Codec ID/Info : UTF-8 Plain Text
Language : English
Default : No
Forced : No





1 个附件 售价 大小 下载 时间

Superman.Doomsday.2007.1080p.BluRay.x264-CiNEFiLE.torrent 0 金币 44.27K 623 次 1月前

#1楼
发帖时间:2019-05-25 06:41:29   |   回复数:2
911degrees
隐世仙人♂
非常感谢,谢谢分享
1月前 #2楼
liyouchai
隐世仙人♂
谢谢楼主分享资源
1月前 #3楼
游客组