_KOOK
武林高手

[2017] [韩国] [剧情] [WEB-1080P] [BT下载]女仆的安慰食物.The Maid's Comfort Food.2017.KR.Director's.Cut.WEB-DL.1920x1080p.x

-->

女仆的安慰食物.The Maid's Comfort Food.2017.KR.Director's.Cut.WEB-DL.1920x1080p.x264.AAC-KOOK.[韩语中字] 2.82GB

无广告,无水印

不定时做种,保证出种,请耐心等待.

※※※※※※※ 影片信息 ※※※※※※※


◎片   名 女仆的安慰食物

◎译   名 The Maid's Comfort Food

◎年   代 2017

◎国   家 韩国

◎类   别 爱情 / 锖色

◎语   言 韩语

◎上映日 期 2017-09-05(韩国)

◎字   幕 简体字幕/繁体字幕

◎视频尺 寸  1920x1080p

◎片   长 1.13.47




#422

 

◎简  介




    英美和丈夫很恩爱,但是由于英美是个残疾人,因此丈夫便请了一位医师兼女仆在家中照顾英美,女仆年轻貌美,由于英美的性冷淡,丈夫开始对女仆产生好感,而女仆也似乎故意诱惑丈夫,令人惊讶的是,女仆不仅对丈夫下手,更开始挑逗性冷淡的英美...






※※※※※※※ 参数信息 ※※※※※※※




General

Unique ID                      : 193453262747665640254677961797724139481 (0x9189BE3F815BDFBC8DFD581612D9EFD9)


Format                         : Matroska

Format version                 : Version 4 / Version 2

File size                      : 2.82 GiB

Duration                       : 1h 13mn

Overall bit rate               : 5 478 Kbps

Movie name                     : KOOK

Encoded date                   : UTC 2019-05-19 09:45:29

Writing application            : mkvmerge v7.7.0 ('Six Voices') 32bit built on Feb 28 2015 23:23:00

Writing library                : libebml v1.3.1 + libmatroska v1.4.2

Attachements                   : fzglfw.ttf / fzgljw.ttf / 正式海报.jpg


Video

ID                             : 1

Format                         : AVC

Format/Info                    : Advanced Video Codec

Format profile                 : [email protected]

Format settings, CABAC         : Yes

Format settings, ReFrames      : 5 frames

Format settings, GOP           : M=4, N=23

Codec ID                       : V_MPEG4/ISO/AVC

Duration                       : 1h 13mn

Bit rate                       : 5 120 Kbps

Width                          : 1 920 pixels

Height                         : 1 080 pixels

Display aspect ratio           : 16:9

Frame rate mode                : Constant

Frame rate                     : 24.000 fps

Color space                    : YUV

Chroma subsampling             : 4:2:0

Bit depth                      : 8 bits

Scan type                      : Progressive

Bits/(Pixel*Frame)             : 0.103

Stream size                    : 2.64 GiB (94%)

Writing library                : x264 core 148 r2768 d32d7bf

Encoding settings              : cabac=1 / ref=5 / deblock=1:0:0 / analyse=0x3:0x113 / me=hex / subme=8 / psy=1 / psy_rd=1.00:0.00 / mixed_ref=1 / me_range=16 / chroma_me=1 / trellis=2 / 8x8dct=1 / cqm=0 / deadzone=21,11 / fast_pskip=1 / chroma_qp_offset=-2 / threads=24 / lookahead_threads=4 / sliced_threads=0 / nr=0 / decimate=1 / interlaced=0 / bluray_compat=0 / stitchable=1 / constrained_intra=0 / bframes=3 / b_pyramid=2 / b_adapt=1 / b_bias=0 / direct=3 / weightb=1 / open_gop=0 / weightp=2 / keyint=23 / keyint_min=12 / scenecut=40 / intra_refresh=0 / rc_lookahead=23 / rc=2pass / mbtree=1 / bitrate=5120 / ratetol=1.0 / qcomp=0.60 / qpmin=0 / qpmax=69 / qpstep=4 / cplxblur=20.0 / qblur=0.5 / ip_ratio=1.40 / aq=1:1.00

Default                        : Yes

Forced                         : No


Audio

ID                             : 2

Format                         : AAC

Format/Info                    : Advanced Audio Codec

Format profile                 : LC

Codec ID                       : A_AAC

Duration                       : 1h 13mn

Bit rate                       : 320 Kbps

Channel(s)                     : 2 channels

Channel positions              : Front: L R

Sampling rate                  : 48.0 KHz

Frame rate                     : 46.875 fps (1024 spf)

Compression mode               : Lossy

Stream size                    : 169 MiB (6%)

Default                        : Yes

Forced                         : No


Text #1

ID                             : 3

Format                         : ASS

Codec ID                       : S_TEXT/ASS

Codec ID/Info                  : Advanced Sub Station Alpha

Duration                       : 1h 12mn

Bit rate                       : 52 bps

Count of elements              : 505

Compression mode               : Lossless

Stream size                    : 28.3 KiB (0%)

Title                          : 简体字幕

Language                       : Chinese

Default                        : Yes

Forced                         : No


Text #2

ID                             : 4

Format                         : ASS

Codec ID                       : S_TEXT/ASS

Codec ID/Info                  : Advanced Sub Station Alpha

Duration                       : 1h 12mn

Bit rate                       : 52 bps

Count of elements              : 505

Compression mode               : Lossless

Stream size                    : 28.3 KiB (0%)

Title                          : 繁体字幕

Language                       : Chinese

Default                        : No

Forced                         : No



#1楼
发帖时间:2019-05-19 23:12:53   |   回复数:6
liyouchai
隐世仙人♂
谢谢楼主分享资源
4月前 #2楼
wangyu4413
武林高手
谢谢楼主分享肉肉
4月前 #3楼
aimorange
武林高手
谢谢分享
4月前 #4楼
blue23
隐世仙人♂
感谢楼主分享
4月前 #5楼
landywon
武林高手
终于等到你  KOOK所发必属精品 必须勇猛的支持  顶起来
4月前 #6楼
911degrees
隐世仙人♂
非常感谢,谢谢分享
4月前 #7楼
游客组