_KOOK
武林高手

[2011] [日本] [喜剧] [BD-1080P] [BT下载]丧尸的屁股.Zombie Ass.Toilet of the Dead.2011.JP.BluRay.1920x1080p.x264.DTS-KOO

-->

丧尸的屁股.Zombie Ass.Toilet of the Dead.2011.JP.BluRay.1920x1080p.x264.DTS-KOOK.[中英双字] 5.77G

无广告,无水印,欢迎转载

独家中英双字幕

不定时做种,保证出种,请耐心等待.

口味超重


※※※※※※※ 影片信息 ※※※※※※※


◎片   名 ゾンビアス

◎译   名 丧尸的屁股 / 茅坑里的僵尸(港) / 僵尸屁股 / 丧尸茅厕 / Zombie Ass: Toilet of the Dead

◎年   代 2011

◎国   家 日本

◎类   别 喜剧 / 恐怖

◎语   言 日语

◎上映日 期 2012-02-25(日本)

◎字   幕 中英双字/繁英双字/简体字幕/繁体字幕/英文字幕

◎IMDB 评分  4.8/10 from 1727 users

◎豆瓣 评分  4.5/10 from 1716 users

◎视频尺 寸  1920x1080p

◎片   长 1.24.58

◎导   演 井口升

◎编   剧  井口升

◎主   演 中村有沙 / 菅野麻由 / 护麻奈



#421

 

◎简  介


  年轻的学生妹惠(中村有沙 饰),不仅人长的漂亮,还拥有这一身犀利的空手道功夫。这天惠同一群老朋友一行五人,共同到树林中散心。五人在树林中钓鱼,却发现了鱼身上有种奇怪的寄生虫,接着,他们在上厕所的时候,就遭遇了丧尸的攻击。被吓得魂飞魄散的年轻人发现了怪博士田中和他女儿的家,连忙跑进去避难。可是他们不知道,恐怖的寄生虫以及丧尸,正是田中的试验品。究竟寄生虫同丧尸之间有着何种联系,惠的空手道能够帮助朋友们逃脱



          

          井口升这个喜感胖子的独特恶趣味才华成为日本B级片的不可忽视的一位导演。一贯的怪诞诙谐和粗糙制作,在这部丧尸茅厕里依旧完美保留了,继之前看过的26种死法,井口升的个人风格还是很容易辨认的。

     这部奇葩片里丧尸不仅从厕所钻出来,还是色狼,最喜欢爆妹纸菊花~当然岛国电影不能缺少的就是要露点和露点和露点!中村这个萌妹子袒露的飞机场是献给意志力坚强的观众的大彩蛋。

          如此无剧情纯卖肉卖恶心重口的电影到底是为什么存在的!想看邪典cult片 ,还是去看三池崇史大叔吧。

         




※※※※※※※ 参数信息 ※※※※※※※




General

Unique ID                      : 232955575116884674261490830018426374503 (0xAF419C9DCECB8435B0F47587BB9B0967)


Format                         : Matroska

Format version                 : Version 4 / Version 2

File size                      : 5.78 GiB

Duration                       : 1h 24mn

Overall bit rate               : 9 733 Kbps

Movie name                     : KOOK

Encoded date                   : UTC 2019-05-18 15:31:03

Writing application            : mkvmerge v7.7.0 ('Six Voices') 32bit built on Feb 28 2015 23:23:00

Writing library                : libebml v1.3.1 + libmatroska v1.4.2

Attachements                   : STKAITI.TTF / fzgljw.ttf / 正式海报.jpg


Video

ID                             : 1

Format                         : AVC

Format/Info                    : Advanced Video Codec

Format profile                 : [email protected]

Format settings, CABAC         : Yes

Format settings, ReFrames      : 4 frames

Codec ID                       : V_MPEG4/ISO/AVC

Duration                       : 1h 24mn

Bit rate                       : 8 359 Kbps

Width                          : 1 920 pixels

Height                         : 1 080 pixels

Display aspect ratio           : 16:9

Frame rate mode                : Constant

Frame rate                     : 23.976 (24000/1001) fps

Color space                    : YUV

Chroma subsampling             : 4:2:0

Bit depth                      : 8 bits

Scan type                      : Progressive

Bits/(Pixel*Frame)             : 0.168

Stream size                    : 4.96 GiB (86%)

Title                          : DEAL - Zombie Ass - 1080p

Writing library                : x264 core 148 r2638 7599210

Encoding settings              : cabac=1 / ref=4 / deblock=1:0:0 / analyse=0x3:0x133 / me=umh / subme=7 / psy=1 / psy_rd=1.00:0.00 / mixed_ref=1 / me_range=16 / chroma_me=1 / trellis=1 / 8x8dct=1 / cqm=0 / deadzone=21,11 / fast_pskip=0 / chroma_qp_offset=-2 / threads=16 / lookahead_threads=2 / sliced_threads=0 / nr=0 / decimate=1 / interlaced=0 / bluray_compat=0 / constrained_intra=0 / bframes=3 / b_pyramid=2 / b_adapt=1 / b_bias=0 / direct=1 / weightb=1 / open_gop=0 / weightp=2 / keyint=240 / keyint_min=23 / scenecut=40 / intra_refresh=0 / rc_lookahead=40 / rc=2pass / mbtree=1 / bitrate=8359 / ratetol=1.0 / qcomp=0.60 / qpmin=0 / qpmax=69 / qpstep=4 / cplxblur=20.0 / qblur=0.5 / ip_ratio=1.40 / aq=1:1.00

Language                       : Japanese

Default                        : Yes

Forced                         : No


Audio

ID                             : 2

Format                         : DTS

Format/Info                    : Digital Theater Systems

Mode                           : 16

Format settings, Endianness    : Big

Codec ID                       : A_DTS

Duration                       : 1h 24mn

Bit rate mode                  : Constant

Bit rate                       : 1 344 Kbps

Channel(s)                     : 6 channels

Channel positions              : Front: L C R, Side: L R, LFE

Sampling rate                  : 48.0 KHz

Frame rate                     : 93.750 fps (512 spf)

Bit depth                      : 24 bits

Compression mode               : Lossy

Stream size                    : 817 MiB (14%)

Title                          : Japanese DTS

Language                       : Japanese

Default                        : Yes

Forced                         : No


Text #1

ID                             : 3

Format                         : ASS

Codec ID                       : S_TEXT/ASS

Codec ID/Info                  : Advanced Sub Station Alpha

Duration                       : 1h 21mn

Bit rate                       : 165 bps

Count of elements              : 765

Compression mode               : Lossless

Stream size                    : 98.7 KiB (0%)

Title                          : 简英双字

Language                       : Chinese

Default                        : Yes

Forced                         : No


Text #2

ID                             : 4

Format                         : ASS

Codec ID                       : S_TEXT/ASS

Codec ID/Info                  : Advanced Sub Station Alpha

Duration                       : 1h 21mn

Bit rate                       : 165 bps

Count of elements              : 765

Compression mode               : Lossless

Stream size                    : 98.7 KiB (0%)

Title                          : 繁英双字

Language                       : Chinese

Default                        : No

Forced                         : No


Text #3

ID                             : 5

Format                         : ASS

Codec ID                       : S_TEXT/ASS

Codec ID/Info                  : Advanced Sub Station Alpha

Duration                       : 1h 21mn

Bit rate                       : 75 bps

Count of elements              : 765

Compression mode               : Lossless

Stream size                    : 45.1 KiB (0%)

Title                          : 简体字幕

Language                       : Chinese

Default                        : No

Forced                         : No


Text #4

ID                             : 6

Format                         : ASS

Codec ID                       : S_TEXT/ASS

Codec ID/Info                  : Advanced Sub Station Alpha

Duration                       : 1h 21mn

Bit rate                       : 75 bps

Count of elements              : 765

Compression mode               : Lossless

Stream size                    : 45.1 KiB (0%)

Title                          : 繁体字幕

Language                       : Chinese

Default                        : No

Forced                         : No


Text #5

ID                             : 7

Format                         : ASS

Codec ID                       : S_TEXT/ASS

Codec ID/Info                  : Advanced Sub Station Alpha

Duration                       : 1h 21mn

Bit rate                       : 128 bps

Count of elements              : 765

Compression mode               : Lossless

Stream size                    : 76.4 KiB (0%)

Title                          : 英文字幕

Language                       : English

Default                        : No

Forced                         : No


1 个附件 售价 大小 下载 时间

丧尸的屁股.Zombie Ass.Toilet of the Dead.2011.JP.BluRay.1920x1080p.x264.DTS-KOOK.[中英双字].torrent 0 金币 119.89K 5383 次 1月前

#1楼
发帖时间:2019-05-19 23:11:06   |   回复数:6
liyouchai
隐世仙人♂
谢谢楼主分享资源
1月前 #2楼
icemen
无名小卒
感谢楼主分享
1月前 #3楼
blue23
隐世仙人♂
感谢楼主分享
1月前 #4楼
丁丁糖糖
武林高手
求丧尸的乳房 一直搜不到 网上有种子 尼玛是假货
1月前 #5楼
landywon
武林高手
终于等到你  KOOK所发必属精品 必须勇猛的支持  顶起来
1月前 #6楼
911degrees
隐世仙人♂
非常感谢,谢谢分享
1月前 #7楼
游客组