aoloffline
版主

[更 早] [欧美] [喜剧] [WEB-1080P] [BT下载]百老汇天使 Angels.Over.Broadway.1940.1080p.WEBRip.DD2.0.x264-SbR 8.36GB

-->

Angels.Over.Broadway.1940.1080p.WEBRip.DD2.0.x264-SbR


◎译  名 百老汇天使

◎片  名 Angels Over Broadway

◎年  代 1940

◎产  地 美国

◎类  别 剧情 / 喜剧 / 音乐 / 犯罪 / 冒险

◎语  言 英语

◎上映日期 1940-10-02

◎IMDb评分 6.7/10 from 774 users

◎IMDb链接 http://www.imdb.com/title/tt0032209

◎BT之家整理 http://www.51btbtt.com/

◎片  长 79 分钟

◎导  演 本 赫特 (Ben Hecht) / 李 加米斯 (Lee Garmes)

◎编  剧 本 赫特 (Ben Hecht)

◎主  演 小道格拉斯·范朋克 Douglas Fairbanks Jr.

      丽塔·海华丝 Rita Hayworth

      Thomas Mitchell




◎简  介  


  A cuckolded embezzler on the verge of suicide is helped by a tout| an alcoholic playwright| and a pick-up girl to reimburse the money with a gambling sting.


◎获奖情况  


  第13届奥斯卡金像奖(1941)

  最佳原创剧本(提名) 本·赫克特


Video
ID : 1
Format : AVC
Format/Info : Advanced Video Codec
Format profile : [email protected]
Format settings : CABAC / 4 Ref Frames
Format settings, CABAC : Yes
Format settings, ReFrames : 4 frames
Codec ID : V_MPEG4/ISO/AVC
Duration : 1 h 19 min
Bit rate : 14.9 Mb/s
Width : 1 440 pixels
Height : 1 080 pixels
Display aspect ratio : 4:3
Frame rate mode : Constant
Frame rate : 23.976 (24000/1001) FPS
Color space : YUV
Chroma subsampling : 4:2:0
Bit depth : 8 bits
Scan type : Progressive
Bits/(Pixel*Frame) : 0.400
Stream size : 8.23 GiB (99%)
Language : English
Default : Yes
Forced : No
Color range : Limited
Color primaries : BT.709
Transfer characteristics : BT.709
Matrix coefficients : BT.709

Audio
ID : 2
Format : E-AC-3
Format/Info : Enhanced AC-3
Commercial name : Dolby Digital Plus
Codec ID : A_EAC3
Duration : 1 h 19 min
Bit rate mode : Constant
Bit rate : 224 kb/s
Channel(s) : 2 channels
Channel layout : L R
Sampling rate : 48.0 kHz
Frame rate : 31.250 FPS (1536 SPF)
Compression mode : Lossy
Stream size : 127 MiB (1%)
Language : English
Service kind : Complete Main
Default : Yes
Forced : No

Text #1
ID : 3
Format : UTF-8
Codec ID : S_TEXT/UTF8
Codec ID/Info : UTF-8 Plain Text
Duration : 1 h 17 min
Bit rate : 82 b/s
Count of elements : 1274
Stream size : 47.2 KiB (0%)
Language : English
Default : No
Forced : No

Text #2
ID : 4
Format : UTF-8
Codec ID : S_TEXT/UTF8
Codec ID/Info : UTF-8 Plain Text
Duration : 1 h 17 min
Bit rate : 90 b/s
Count of elements : 1586
Stream size : 51.3 KiB (0%)
Title : SDH
Language : English
Default : No
Forced : No

Menu
00:00:00.000 : en:01. Start
00:00:42.491 : en:02. Bill O\'Brien
00:02:04.773 : en:03. $3000 Short
00:08:47.509 : en:04. Nina Barona
00:10:29.512 : en:05. Eugene Gibbons, Playwright
00:11:42.785 : en:06. Wrong Coat
00:14:49.539 : en:07. Fellow Cadavers
00:16:34.410 : en:08. \"I\'Ain\'t a Millionaire.\"
00:19:42.132 : en:09. A Rotten World
00:22:09.613 : en:10. Mr. Hugo
00:23:58.389 : en:11. Gibbons Taketh Back
00:25:32.683 : en:12. $12,000 Trinket
00:27:15.953 : en:13. Analyzing Things
00:28:54.886 : en:14. Paste
00:30:55.341 : en:15. \"Mr. Engle Needs $3000.\"
00:34:00.192 : en:16. Empathy
00:37:08.881 : en:17. Waiting on Stage
00:42:41.980 : en:18. A Percentage Player
00:47:32.270 : en:19. Fun at Sunset
00:49:51.777 : en:20. Out Cold
00:54:50.208 : en:21. The Lion\'s Den
00:55:32.750 : en:22. First Hand
00:58:20.652 : en:23. \"I Want to Come Home.\"
01:03:58.990 : en:24. Beginning of a Run
01:09:02.961 : en:25. \"You\'ve Gotta Go Back!\"
01:13:14.146 : en:26. Copping a Sneak
01:14:19.645 : en:27. Night Court
01:15:56.643 : en:28. Something Wonderful



1 个附件 售价 大小 下载 时间

Angels.Over.Broadway.1940.1080p.WEBRip.DD2.0.x264-SbR[btbtt.me].torrent 0 金币 42.30K 490 次 6月前

#1楼
发帖时间:2019-02-12 16:25:52   |   回复数:2
liyouchai
隐世仙人♂
谢谢楼主分享资源
6月前 #2楼
911degrees
隐世仙人♂
非常感谢,谢谢分享
6月前 #3楼
游客组