aoloffline
版主

[2018] [欧美] [惊悚] [WEB-1080P] [BT下载]丛林怪物 The.Axiom.2018.1080p.WEB-DL.DD5.1.H264-FGT 3.38GB

-->

The.Axiom.2018.1080p.WEB-DL.DD5.1.H264-FGT

◎译  名 丛林怪物

◎片  名 The Axiom

◎年  代 2018

◎产  地 美国

◎类  别 恐怖

◎语  言 英语

◎上映日期 2018-03-01(美国)

◎IMDb评分 6.8/10 from 42 users

◎IMDb链接 http://www.imdb.com/title/tt6051096

◎BT之家整理 http://www.51btbtt.com/

◎片  长 98分钟

◎导  演 Nicholas Wood

◎编  剧 Nicholas Wood

◎主  演 Hattie Smith

      Zac Titus

      Nicole Dambro




◎简  介  


  At the risk of her group's safety, a young woman travels into a National Forest where her sister has become trapped in a multi-dimensional world of monsters.


Video
ID : 1
Format : AVC
Format/Info : Advanced Video Codec
Format profile : [email protected]
Format settings : CABAC / 5 Ref Frames
Format settings, CABAC : Yes
Format settings, ReFrames : 5 frames
Codec ID : V_MPEG4/ISO/AVC
Duration : 1 h 38 min
Bit rate : 4 521 kb/s
Width : 1 920 pixels
Height : 804 pixels
Display aspect ratio : 2.40:1
Frame rate mode : Constant
Frame rate : 23.976 (23976/1000) FPS
Color space : YUV
Chroma subsampling : 4:2:0
Bit depth : 8 bits
Scan type : Progressive
Bits/(Pixel*Frame) : 0.122
Stream size : 3.12 GiB (92%)
Title : The.Axiom.2018.1080p.WEB-DL.DD5.1.H264-FGT
Language : English
Default : Yes
Forced : No
Color range : Limited
Color primaries : BT.709
Transfer characteristics : BT.709
Matrix coefficients : BT.709

Audio
ID : 2
Format : AC-3
Format/Info : Audio Coding 3
Commercial name : Dolby Digital
Codec ID : A_AC3
Duration : 1 h 38 min
Bit rate mode : Constant
Bit rate : 384 kb/s
Channel(s) : 6 channels
Channel layout : L R C LFE Ls Rs
Sampling rate : 48.0 kHz
Frame rate : 31.250 FPS (1536 SPF)
Bit depth : 16 bits
Compression mode : Lossy
Stream size : 271 MiB (8%)
Title : The.Axiom.2018.1080p.WEB-DL.DD5.1.H264-FGT
Language : English
Service kind : Complete Main
Default : Yes
Forced : No

Menu
00:00:00.000 : en:1
00:15:00.000 : en:2
00:30:00.000 : en:3
00:45:00.000 : en:4
01:00:00.000 : en:5
01:15:00.000 : en:6
01:35:59.000 : en:7



1 个附件 售价 大小 下载 时间

The.Axiom.2018.1080p.WEB-DL.DD5.1.H264-FGT[btbtt.me].torrent 0 金币 34.35K 490 次 2月前

#1楼
发帖时间:2019-02-11 22:24:38   |   回复数:2
liyouchai
超凡入圣№
谢谢楼主分享资源
2月前 #2楼
911degrees
隐世仙人♂
非常感谢,谢谢分享
2月前 #3楼
游客组