aoloffline
版主

[2010] [欧美] [动作] [WEB-1080P] [BT下载]可可传说:夜魔人 Cucuy.The.Boogeyman.2018.1080p.WEB-DL.DD5.1.H264-FGT 3.6GB

-->

Cucuy.The.Boogeyman.2018.1080p.WEB-DL.DD5.1.H264-FGT

◎译  名 可可传说:夜魔人 / 奪子惡靈(台)

◎片  名 Cucuy: The Boogeyman

◎年  代 2018

◎产  地 美国

◎类  别 惊悚

◎语  言 英语

◎上映日期 2018-10-13(美国)

◎IMDb评分 5.0/10 from 242 users

◎IMDb链接 http://www.imdb.com/title/tt8324462

◎BT之家整理 http://www.51btbtt.com/

◎片  长 94分钟

◎导  演 Peter Sullivan

◎编  剧 Peter Sullivan

◎主  演 马利索·妮可 Marisol Nichols

      布莱恩·克劳斯 Brian Krause

      Jearnest Corchado




◎简  介  


  When children start disappearing, a rebellious teen under house arrest starts to suspect that a legendary evil, a boogeyman known as the Cucuy, might be responsible.


Video
ID : 1
Format : AVC
Format/Info : Advanced Video Codec
Format profile : [email protected]
Format settings : CABAC / 4 Ref Frames
Format settings, CABAC : Yes
Format settings, ReFrames : 4 frames
Codec ID : V_MPEG4/ISO/AVC
Duration : 1 h 34 min
Bit rate : 5 177 kb/s
Width : 1 916 pixels
Height : 1 072 pixels
Display aspect ratio : 16:9
Frame rate mode : Constant
Frame rate : 23.976 FPS
Color space : YUV
Chroma subsampling : 4:2:0
Bit depth : 8 bits
Scan type : Progressive
Bits/(Pixel*Frame) : 0.105
Stream size : 3.43 GiB (93%)
Title : Cucuy.The.Boogeyman.2018.1080p.WEB-DL.DD5.1.H.264-FGT
Language : English
Default : Yes
Forced : No
Color range : Limited
Color primaries : BT.709
Transfer characteristics : BT.709
Matrix coefficients : BT.709

Audio
ID : 2
Format : AC-3
Format/Info : Audio Coding 3
Commercial name : Dolby Digital
Codec ID : A_AC3
Duration : 1 h 34 min
Bit rate mode : Constant
Bit rate : 384 kb/s
Channel(s) : 6 channels
Channel layout : L R C LFE Ls Rs
Sampling rate : 48.0 kHz
Frame rate : 31.250 FPS (1536 SPF)
Bit depth : 16 bits
Compression mode : Lossy
Stream size : 260 MiB (7%)
Title : Cucuy.The.Boogeyman.2018.1080p.WEB-DL.DD5.1.H.264-FGT
Language : English
Service kind : Complete Main
Default : Yes
Forced : No

Menu
00:00:00.000 : en:1
00:06:33.977 : en:2
00:10:25.249 : en:3
00:15:10.409 : en:4
00:20:43.283 : en:5
00:26:14.656 : en:6
00:30:21.569 : en:7
00:35:04.852 : en:8
00:39:38.458 : en:9
00:45:32.394 : en:10
00:50:43.997 : en:11
00:56:52.656 : en:12
01:01:52.871 : en:13
01:07:55.275 : en:14
01:12:54.449 : en:15
01:18:35.498 : en:16
01:23:30.041 : en:17
01:29:27.815 : en:18



1 个附件 售价 大小 下载 时间

Cucuy.The.Boogeyman.2018.1080p.WEB-DL.DD5.1.H264-FGT[btbtt.me].torrent 0 金币 37.36K 420 次 5月前

#1楼
发帖时间:2019-02-11 22:21:07   |   回复数:2
liyouchai
隐世仙人♂
谢谢楼主分享资源
5月前 #2楼
911degrees
隐世仙人♂
非常感谢,谢谢分享
5月前 #3楼
游客组