aoloffline
版主

[2018] [欧美] [动作] [WEB-720P] [ВТ下载]法外之王 Outlaw.King.2018.720p.WEBRip.x264-STRiFE 3.18GB

-->

Outlaw.King.2018.720p.WEBRip.x264-STRiFE

◎译  名 法外之王 / 不法国王(台) / 无法之王 / 逃犯国王(港)

◎片  名 Outlaw King

◎年  代 2018

◎产  地 英国

◎类  别 剧情 / 动作 / 传记

◎语  言 英语

◎上映日期 2018-09-06(多伦多电影节) / 2018-11-09(美国)

◎IMDb评分 7.2/10 from 346 users

◎IMDb链接 http://www.imdb.com/title/tt6679794

◎BT之家整理 http://www.btbtt.us/

◎片  长 137分钟

◎导  演 大卫·马肯兹 David Mackenzie

◎编  剧 大卫·马肯兹 David Mackenzie

◎主  演 克里斯·派恩 Chris Pine

      亚伦·泰勒-约翰逊 Aaron Taylor-Johnson

      弗洛伦斯·皮尤 Florence Pugh

      比利·豪尔 Billy Howle

      卡兰·马尔韦 Callan Mulvey

      史蒂芬·克里 Steven Cree

      Lorne MacFadyen





◎简  介  


  本片讲述罗伯特·布鲁斯鲜为人知的真实故事。他昔日是战败的贵族,后来不情愿地当上国王,然后在曲折离奇的一年成为法外英雄。为了拯救家人、人民和国家,让中世纪的苏格兰脱离英格兰的暴虐佔领,罗伯特被迫投入战役。他夺得苏格兰国王之位,并召集一批乌合之众,抵抗世界上最强大的军队,而率领这支愤怒的军队的,是凶残的英格兰国王爱德华一世和他喜怒无常的儿子威尔斯亲王。


Video
ID : 1
Format : AVC
Format/Info : Advanced Video Codec
Format profile : High@L4.1
Format settings : CABAC / 5 Ref Frames
Format settings, CABAC : Yes
Format settings, ReFrames : 5 frames
Codec ID : V_MPEG4/ISO/AVC
Duration : 2 h 1 min
Bit rate : 3 360 kb/s
Width : 1 280 pixels
Height : 536 pixels
Display aspect ratio : 2.40:1
Frame rate mode : Constant
Frame rate : 24.000 FPS
Color space : YUV
Chroma subsampling : 4:2:0
Bit depth : 8 bits
Scan type : Progressive
Bits/(Pixel*Frame) : 0.204
Stream size : 2.85 GiB (90%)
Writing library : x264 core 157 r2935 545de2f
Encoding settings : cabac=1 / ref=5 / deblock=1:-3:-3 / analyse=0x3:0x113 / me=hex / subme=8 / psy=1 / psy_rd=1.00:0.15 / mixed_ref=1 / me_range=16 / chroma_me=1 / trellis=2 / 8x8dct=1 / cqm=0 / deadzone=21,11 / fast_pskip=0 / chroma_qp_offset=-2 / threads=17 / lookahead_threads=2 / sliced_threads=0 / nr=0 / decimate=1 / interlaced=0 / bluray_compat=0 / constrained_intra=0 / bframes=3 / b_pyramid=2 / b_adapt=1 / b_bias=0 / direct=3 / weightb=1 / open_gop=0 / weightp=2 / keyint=240 / keyint_min=24 / scenecut=40 / intra_refresh=0 / rc_lookahead=50 / rc=crf / mbtree=1 / crf=18.0 / qcomp=0.60 / qpmin=0 / qpmax=69 / qpstep=4 / ip_ratio=1.40 / aq=3:0.80
Language : English
Default : Yes
Forced : No

Audio
ID : 2
Format : AC-3
Format/Info : Audio Coding 3
Commercial name : Dolby Digital
Codec ID : A_AC3
Duration : 2 h 1 min
Bit rate mode : Constant
Bit rate : 384 kb/s
Channel(s) : 6 channels
Channel layout : L R C LFE Ls Rs
Sampling rate : 48.0 kHz
Frame rate : 31.250 FPS (1536 SPF)
Bit depth : 16 bits
Compression mode : Lossy
Stream size : 334 MiB (10%)
Language : English
Service kind : Complete Main
Default : Yes
Forced : No

Text #1
ID : 3
Format : UTF-8
Codec ID : S_TEXT/UTF8
Codec ID/Info : UTF-8 Plain Text
Duration : 1 h 59 min
Bit rate : 47 b/s
Count of elements : 1387
Stream size : 41.6 KiB (0%)
Language : English
Default : No
Forced : No

Text #2
ID : 4
Format : UTF-8
Codec ID : S_TEXT/UTF8
Codec ID/Info : UTF-8 Plain Text
Duration : 2 h 0 min
Bit rate : 35 b/s
Count of elements : 1145
Stream size : 31.7 KiB (0%)
Title : Brazilian
Language : Portuguese
Default : No
Forced : No

Text #3
ID : 5
Format : UTF-8
Codec ID : S_TEXT/UTF8
Codec ID/Info : UTF-8 Plain Text
Duration : 2 h 0 min
Bit rate : 34 b/s
Count of elements : 956
Stream size : 30.2 KiB (0%)
Language : Danish
Default : No
Forced : No

Text #4
ID : 6
Format : UTF-8
Codec ID : S_TEXT/UTF8
Codec ID/Info : UTF-8 Plain Text
Duration : 2 h 0 min
Bit rate : 37 b/s
Count of elements : 1175
Stream size : 32.7 KiB (0%)
Language : Dutch
Default : No
Forced : No

Text #5
ID : 7
Format : UTF-8
Codec ID : S_TEXT/UTF8
Codec ID/Info : UTF-8 Plain Text
Duration : 2 h 0 min
Bit rate : 37 b/s
Count of elements : 1183
Stream size : 32.7 KiB (0%)
Title : European
Language : Spanish
Default : No
Forced : No

Text #6
ID : 8
Format : UTF-8
Codec ID : S_TEXT/UTF8
Codec ID/Info : UTF-8 Plain Text
Duration : 2 h 0 min
Bit rate : 33 b/s
Count of elements : 977
Stream size : 29.2 KiB (0%)
Language : Finnish
Default : No
Forced : No

Text #7
ID : 9
Format : UTF-8
Codec ID : S_TEXT/UTF8
Codec ID/Info : UTF-8 Plain Text
Duration : 2 h 0 min
Bit rate : 41 b/s
Count of elements : 1205
Stream size : 36.2 KiB (0%)
Language : French
Default : No
Forced : No

Text #8
ID : 10
Format : UTF-8
Codec ID : S_TEXT/UTF8
Codec ID/Info : UTF-8 Plain Text
Duration : 2 h 0 min
Bit rate : 40 b/s
Count of elements : 1196
Stream size : 35.4 KiB (0%)
Language : German
Default : No
Forced : No

Text #9
ID : 11
Format : UTF-8
Codec ID : S_TEXT/UTF8
Codec ID/Info : UTF-8 Plain Text
Duration : 2 h 0 min
Bit rate : 68 b/s
Count of elements : 1174
Stream size : 60.5 KiB (0%)
Language : Greek
Default : No
Forced : No

Text #10
ID : 12
Format : UTF-8
Codec ID : S_TEXT/UTF8
Codec ID/Info : UTF-8 Plain Text
Duration : 2 h 0 min
Bit rate : 37 b/s
Count of elements : 1155
Stream size : 32.9 KiB (0%)
Language : Indonesian
Default : No
Forced : No

Text #11
ID : 13
Format : UTF-8
Codec ID : S_TEXT/UTF8
Codec ID/Info : UTF-8 Plain Text
Duration : 2 h 0 min
Bit rate : 35 b/s
Count of elements : 1139
Stream size : 31.7 KiB (0%)
Language : Italian
Default : No
Forced : No

Text #12
ID : 14
Format : UTF-8
Codec ID : S_TEXT/UTF8
Codec ID/Info : UTF-8 Plain Text
Duration : 2 h 0 min
Bit rate : 32 b/s
Count of elements : 1199
Stream size : 28.5 KiB (0%)
Language : Norwegian Bokmal
Default : No
Forced : No

Text #13
ID : 15
Format : UTF-8
Codec ID : S_TEXT/UTF8
Codec ID/Info : UTF-8 Plain Text
Duration : 2 h 0 min
Bit rate : 37 b/s
Count of elements : 1196
Stream size : 32.7 KiB (0%)
Language : Polish
Default : No
Forced : No

Text #14
ID : 16
Format : UTF-8
Codec ID : S_TEXT/UTF8
Codec ID/Info : UTF-8 Plain Text
Duration : 2 h 0 min
Bit rate : 38 b/s
Count of elements : 1118
Stream size : 33.7 KiB (0%)
Language : Portuguese
Default : No
Forced : No

Text #15
ID : 17
Format : UTF-8
Codec ID : S_TEXT/UTF8
Codec ID/Info : UTF-8 Plain Text
Duration : 2 h 0 min
Bit rate : 63 b/s
Count of elements : 1198
Stream size : 56.1 KiB (0%)
Language : Russian
Default : No
Forced : No

Text #16
ID : 18
Format : UTF-8
Codec ID : S_TEXT/UTF8
Codec ID/Info : UTF-8 Plain Text
Duration : 2 h 0 min
Bit rate : 39 b/s
Count of elements : 1226
Stream size : 35.0 KiB (0%)
Language : Spanish
Default : No
Forced : No

Text #17
ID : 19
Format : UTF-8
Codec ID : S_TEXT/UTF8
Codec ID/Info : UTF-8 Plain Text
Duration : 2 h 0 min
Bit rate : 37 b/s
Count of elements : 1169
Stream size : 32.9 KiB (0%)
Language : Swedish
Default : No
Forced : No

Text #18
ID : 20
Format : UTF-8
Codec ID : S_TEXT/UTF8
Codec ID/Info : UTF-8 Plain Text
Duration : 2 h 0 min
Bit rate : 38 b/s
Count of elements : 1203
Stream size : 33.8 KiB (0%)
Language : Turkish
Default : No
Forced : No



1 个附件 售价 大小 下载 时间

Outlaw.King.2018.720p.WEBRip.x264-STRiFE[btbtt.me].torrent 0 金币 127.93K 977 次 7天前

#1楼
发帖时间:2018-11-09 22:20:12   |   回复数:3
liyouchai
超凡入圣№
谢谢楼主分享资源
7天前 #2楼
911degrees
隐世仙人♂
非常感谢,谢谢分享
6天前 #3楼
blue23
隐世仙人♂
感谢楼主分享
5天前 #4楼
游客组