aoloffline
版主

[更 早] [欧美] [恐怖] [BD-4K] [ВТ下载]天魔回魂 1987.2160p.BluRay.x265.10bit.SDR.DTS-HD.MA.5.1-SWTYBLZ 44GB

-->

Prince.of.Darkness.1987.2160p.BluRay.x265.10bit.SDR.DTS-HD.MA.5.1-SWTYBLZ

◎译  名 天魔回魂 / 沉睡百万年

◎片  名 Prince of Darkness

◎年  代 1987

◎产  地 美国

◎类  别 科幻 / 恐怖

◎语  言 英语

◎上映日期 1988-03-11

◎IMDb评分 6.7/10 from 30701 users

◎IMDb链接 http://www.imdb.com/title/tt0093777

◎豆瓣评分 6.5/10 from 728 users

◎豆瓣链接 https://movie.douban.com/subject/1294184/

◎BT之家整理 http://www.btbtt.us/

◎片  长 102 分钟

◎导  演 约翰·卡朋特 John Carpenter

◎编  剧 约翰·卡朋特 John Carpenter

◎主  演 唐纳德·普利森斯 Donald Pleasence

      维克托·王 Victor Wong

      丽萨·布伦特 Lisa Blount

      詹姆森·帕克 Jameson Parker

      Dennis Dun

      Anne Marie Howard

      Dirk Blocker

      Jessie Lawrence Ferguson

      Peter Jason

      Thom Bray

      Joanna Merlin





◎简  介  


  在洛杉矶一间废置的教堂里,一个牧师召集了一班学生与科学家,研究他们找到一个盛有绿色液体的玻璃管。这枝玻璃管可以将魔鬼之子释放,最终可以将魔鬼带到人间,世界末日便会来临。




Video
ID : 1
Format : HEVC
Format/Info : High Efficiency Video Coding
Format profile : Main 10@L5.1@High
Codec ID : V_MPEGH/ISO/HEVC
Duration : 1 h 41 min
Bit rate : 58.1 Mb/s
Width : 3 840 pixels
Height : 1 634 pixels
Display aspect ratio : 2.35:1
Frame rate mode : Constant
Frame rate : 24.000 FPS
Color space : YUV
Chroma subsampling : 4:2:0
Bit depth : 10 bits
Bits/(Pixel*Frame) : 0.386
Stream size : 41.3 GiB (93%)
Title : Prince.of.Darkness.1987.2160p.BluRay.x265.10bit.SDR.DTS-HD.MA.5.1-SWTYBLZ
Writing library : x265 2.9471726d3a046:[Windows][GCC 8.2.0][64 bit] 10bit
Encoding settings : cpuid=1111039 / frame-threads=16 / numa-pools=20 / wpp / no-pmode / no-pme / no-psnr / no-ssim / log-level=2 / input-csp=1 / input-res=3840x1634 / interlace=0 / total-frames=146560 / level-idc=51 / high-tier=1 / uhd-bd=0 / ref=3 / no-allow-non-conformance / repeat-headers / annexb / aud / hrd / info / hash=0 / no-temporal-layers / no-open-gop / min-keyint=1 / keyint=24 / gop-lookahead=0 / bframes=4 / b-adapt=2 / b-pyramid / bframe-bias=0 / rc-lookahead=25 / lookahead-slices=4 / scenecut=40 / radl=0 / no-intra-refresh / ctu=64 / min-cu-size=8 / no-rect / no-amp / max-tu-size=32 / tu-inter-depth=1 / tu-intra-depth=1 / limit-tu=0 / rdoq-level=0 / dynamic-rd=0.00 / no-ssim-rd / signhide / no-tskip / nr-intra=0 / nr-inter=0 / no-constrained-intra / strong-intra-smoothing / max-merge=2 / limit-refs=3 / no-limit-modes / me=1 / subme=2 / merange=57 / temporal-mvp / weightp / no-weightb / no-analyze-src-pics / deblock=0:0 / no-sao / no-sao-non-deblock / rd=3 / no-early-skip / rskip / no-fast-intra / no-tskip-fast / no-cu-lossless / no-b-intra / no-splitrd-skip / rdpenalty=0 / psy-rd=2.00 / psy-rdoq=0.00 / no-rd-refine / no-lossless / cbqpoffs=0 / crqpoffs=0 / rc=crf / crf=20.0 / qcomp=0.60 / qpstep=4 / stats-write=0 / stats-read=0 / vbv-maxrate=160000 / vbv-bufsize=160000 / vbv-init=0.9 / crf-max=0.0 / crf-min=0.0 / ipratio=1.40 / pbratio=1.30 / aq-mode=1 / aq-strength=1.00 / cutree / zone-count=0 / no-strict-cbr / qg-size=32 / no-rc-grain / qpmax=69 / qpmin=0 / no-const-vbv / sar=1 / overscan=0 / videoformat=5 / range=0 / colorprim=2 / transfer=2 / colormatrix=2 / chromaloc=0 / display-window=0 / max-cll=0,0 / min-luma=0 / max-luma=1023 / log2-max-poc-lsb=8 / vui-timing-info / vui-hrd-info / slices=1 / opt-qp-pps / opt-ref-list-length-pps / no-multi-pass-opt-rps / scenecut-bias=0.05 / no-opt-cu-delta-qp / no-aq-motion / no-hdr / no-hdr-opt / no-dhdr10-opt / no-idr-recovery-sei / analysis-reuse-level=5 / scale-factor=0 / refine-intra=0 / refine-inter=0 / refine-mv=0 / no-limit-sao / ctu-info=0 / no-lowpass-dct / refine-mv-type=0 / copy-pic=1 / max-ausize-factor=1.0 / no-dynamic-refine / no-single-sei
Language : English
Default : Yes
Forced : No

Audio #1
ID : 2
Format : DTS XLL
Format/Info : Digital Theater Systems
Commercial name : DTS-HD Master Audio
Codec ID : A_DTS
Duration : 1 h 41 min
Bit rate mode : Variable
Bit rate : 3 573 kb/s
Channel(s) : 6 channels
Channel layout : C L R Ls Rs LFE
Sampling rate : 48.0 kHz
Frame rate : 93.750 FPS (512 SPF)
Bit depth : 24 bits
Compression mode : Lossless
Stream size : 2.54 GiB (6%)
Title : Prince.of.Darkness.1987.2160p.BluRay.x265.10bit.SDR.DTS-HD.MA.5.1-SWTYBLZ
Language : English
Default : Yes
Forced : No

Audio #2
ID : 3
Format : AC-3
Format/Info : Audio Coding 3
Commercial name : Dolby Digital
Codec ID : A_AC3
Duration : 1 h 41 min
Bit rate mode : Constant
Bit rate : 640 kb/s
Channel(s) : 6 channels
Channel layout : L R C LFE Ls Rs
Sampling rate : 48.0 kHz
Frame rate : 31.250 FPS (1536 SPF)
Bit depth : 16 bits
Compression mode : Lossy
Stream size : 466 MiB (1%)
Title : Prince.of.Darkness.1987.2160p.BluRay.x265.10bit.SDR.DTS-HD.MA.5.1-SWTYBLZ
Language : English
Service kind : Complete Main
Default : No
Forced : No

Text #1
ID : 4
Format : UTF-8
Codec ID : S_TEXT/UTF8
Codec ID/Info : UTF-8 Plain Text
Duration : 1 h 35 min
Bit rate : 38 b/s
Count of elements : 794
Stream size : 27.1 KiB (0%)
Title : English-SRT
Language : English
Default : Yes
Forced : No

Text #2
ID : 5
Format : UTF-8
Codec ID : S_TEXT/UTF8
Codec ID/Info : UTF-8 Plain Text
Duration : 1 h 37 min
Bit rate : 40 b/s
Count of elements : 897
Stream size : 29.2 KiB (0%)
Title : English-SDH-SRT
Language : English
Default : No
Forced : No

Text #3
ID : 6
Format : PGS
Muxing mode : zlib
Codec ID : S_HDMV/PGS
Codec ID/Info : Picture based subtitle format used on BDs/HD-DVDs
Duration : 1 h 37 min
Bit rate : 25.2 kb/s
Count of elements : 1794
Stream size : 17.6 MiB (0%)
Title : English-PGS
Language : English
Default : No
Forced : No

Text #4
ID : 7
Format : PGS
Muxing mode : zlib
Codec ID : S_HDMV/PGS
Codec ID/Info : Picture based subtitle format used on BDs/HD-DVDs
Duration : 1 h 40 min
Bit rate : 14.3 kb/s
Count of elements : 1376
Stream size : 10.2 MiB (0%)
Title : French-PGS
Language : French
Default : No
Forced : No

Text #5
ID : 8
Format : PGS
Muxing mode : zlib
Codec ID : S_HDMV/PGS
Codec ID/Info : Picture based subtitle format used on BDs/HD-DVDs
Duration : 1 h 35 min
Bit rate : 18.9 kb/s
Count of elements : 1016
Stream size : 12.9 MiB (0%)
Title : German-PGS
Language : German
Default : No
Forced : No

Menu
00:00:00.000 : :Chapter 1
00:11:23.916 : :Chapter 2
00:20:05.041 : :Chapter 3
00:30:43.458 : :Chapter 4
00:42:11.291 : :Chapter 5
00:53:26.166 : :Chapter 6
01:06:35.791 : :Chapter 7
01:14:00.000 : :Chapter 8
01:23:36.708 : :Chapter 9
01:26:47.958 : :Chapter 10
01:35:09.166 : :Chapter 11
01:38:42.458 : :Chapter 12




1 个附件 售价 大小 下载 时间

Prince.of.Darkness.1987.2160p.BluRay.x265.10bit.SDR.DTS-HD.MA.5.1-SWTYBLZ[btbtt.me].torrent 0 金币 111.93K 252 次 7天前

#1楼
发帖时间:2018-11-09 22:14:00   |   回复数:3
liyouchai
超凡入圣№
谢谢楼主分享资源
6天前 #2楼
911degrees
隐世仙人♂
非常感谢,谢谢分享
6天前 #3楼
blue23
隐世仙人♂
感谢楼主分享
5天前 #4楼
游客组