aoloffline
版主

[2018] [欧美] [科幻] [WEB-720P] [ВТ下载]时间怪客 Time.Freak.2018.720p.AMZN.WEBRip.DDP5.1.x264-NTG 1.7GB

-->

Time.Freak.2018.720p.AMZN.WEBRip.DDP5.1.x264-NTG

◎译  名 时间怪客

◎片  名 Time Freak

◎年  代 2018

◎产  地 美国

◎类  别 科幻

◎语  言 英语

◎上映日期 2018-11-09(美国)

◎IMDb评分 8.0/10 from 28 users

◎IMDb链接 http://www.imdb.com/title/tt6769280

◎BT之家整理 http://www.btbtt.us/

◎导  演 Andrew Bowler

◎编  剧 Andrew Bowler

◎主  演 阿萨·巴特菲尔德 Asa Butterfield

      苏菲·特纳 Sophie Turner

      威廉·佩尔茨 william peltz

      斯凯勒·吉桑多 Skyler Gisondo

      Aubrey Reynolds




◎简  介  


  一个心碎的物理学生(Asa Butterfield),当他的女友Debbie(Sophie Turner)和他分手后,他发明了一台时间机器。试图回到过去解决恋情中的错误...改编自导演Andrew Bowler11年的同名短片。


Video
ID : 1
Format : AVC
Format/Info : Advanced Video Codec
Format profile : High@L3.1
Format settings : CABAC / 5 Ref Frames
Format settings, CABAC : Yes
Format settings, ReFrames : 5 frames
Codec ID : V_MPEG4/ISO/AVC
Duration : 1 h 44 min
Bit rate : 1 685 kb/s
Width : 1 280 pixels
Height : 688 pixels
Display aspect ratio : 1.85:1
Frame rate mode : Constant
Frame rate : 23.976 (24000/1001) FPS
Color space : YUV
Chroma subsampling : 4:2:0
Bit depth : 8 bits
Scan type : Progressive
Bits/(Pixel*Frame) : 0.080
Stream size : 1.23 GiB (72%)
Default : Yes
Forced : No
Color range : Limited
Color primaries : BT.709
Transfer characteristics : BT.709
Matrix coefficients : BT.709

Audio
ID : 2
Format : E-AC-3
Format/Info : Enhanced AC-3
Commercial name : Dolby Digital Plus
Codec ID : A_EAC3
Duration : 1 h 44 min
Bit rate mode : Constant
Bit rate : 640 kb/s
Channel(s) : 6 channels
Channel layout : L R C LFE Ls Rs
Sampling rate : 48.0 kHz
Frame rate : 31.250 FPS (1536 SPF)
Compression mode : Lossy
Stream size : 480 MiB (28%)
Language : English
Service kind : Complete Main
Default : Yes
Forced : No

Text
ID : 3
Format : UTF-8
Codec ID : S_TEXT/UTF8
Codec ID/Info : UTF-8 Plain Text
Duration : 1 h 38 min
Bit rate : 74 b/s
Count of elements : 1613
Stream size : 53.9 KiB (0%)
Title : SDH
Language : English
Default : No
Forced : No



1 个附件 售价 大小 下载 时间

Time.Freak.2018.720p.AMZN.WEBRip.DDP5.1.x264-NTG[btbtt.me].torrent 0 金币 34.60K 742 次 7天前

#1楼
发帖时间:2018-11-09 17:55:52   |   回复数:3
911degrees
隐世仙人♂
非常感谢,谢谢分享
7天前 #2楼
liyouchai
超凡入圣№
谢谢楼主分享资源
6天前 #3楼
blue23
隐世仙人♂
感谢楼主分享
5天前 #4楼
游客组